[国产]《云南虫谷》[第01-16集全][国语中字][1080p]

%title插图%num

◎译  名 鬼吹灯之云南虫谷/Candle in the Tomb: The Worm Valley/The Worm Valley
◎片  名 云南虫谷
◎年  代 2021
◎产  地 中国大陆
◎类  别 剧情/动作/冒险
◎语  言 汉语普通话
◎上映日期 2021-08-30(中国大陆)
◎豆瓣评分 6.6/10 from 76860 users
◎豆瓣链接 https://douban.com/subject/35042912/
◎集  数 16
◎导  演 费振翔 Zhenxiang Fei
◎编  剧 天下霸唱 Muye Zhang
◎主  演 潘粤明 Yueming Pan
       张雨绮 Yuqi Zhang
       姜超 Chao Jiang
       郑伊鸣 Yiming Zheng
◎标  签 鬼吹灯 | 龙岭迷窟原班人马 | 云南虫谷 | 潘粤明 | 盗墓 | 悬疑 | 国产剧 | 国产电视剧
◎简  介

网剧《云南虫谷》改编自天下霸唱小说《鬼吹灯之云南虫谷》,承接《龙岭迷窟》剧情,讲述了由胡八一(潘粤明 饰)、Shirley杨(张雨绮 饰)、王胖子(姜超 饰)组成的探险三人组查到传闻中救人性命的雮尘珠成为了古滇国献王墓的随葬品,特深入瘴疠之地探寻雮尘珠踪迹的故事。

三人依照一 张人皮地图穿过遮龙山下古滇国秘密地下水道,不料遭遇千年痋术机关,成千上万个奴隶制成的“痋俑”像炸弹一样倒悬在洞顶,当它们接二连三地落入水中,引发的却是一连串的弱肉强食,一物降一物;丛林中夜现“SOS”电码,是曾经葬身此地的飞虎队队员怨魂作祟,还是献王的大祭师设下的迷局……

视频信息

General
Complete name                  : E:\The.Worm.Valley.2021.EP01.HD1080P.X264.AAC.Mandarin.CHS.Mp4er.mp4
Format                         : MPEG-4
Format profile                 : Base Media
Codec ID                       : isom (isom/iso2/avc1/mp41)
File size                      : 1.56 GiB
Duration                       : 39 min 50 s
Overall bit rate mode          : Variable
Overall bit rate               : 5 589 kb/s
Movie name                     : www.mp4er.com
Writing application            : Lavf58.48.100
Cover                          : Yes
Comment                        : [哔嘀影视-bdys.me]

Video
ID                             : 2
Format                         : AVC
Format/Info                    : Advanced Video Codec
Format profile                 : High@L4
Format settings                : CABAC / 4 Ref Frames
Format settings, CABAC         : Yes
Format settings, Reference fra : 4 frames
Codec ID                       : avc1
Codec ID/Info                  : Advanced Video Coding
Duration                       : 39 min 50 s
Bit rate                       : 5 489 kb/s
Width                          : 1 920 pixels
Height                         : 804 pixels
Display aspect ratio           : 2.40:1
Frame rate mode                : Variable
Frame rate                     : 25.000 FPS
Minimum frame rate             : 24.993 FPS
Maximum frame rate             : 25.007 FPS
Color space                    : YUV
Chroma subsampling             : 4:2:0
Bit depth                      : 8 bits
Scan type                      : Progressive
Bits/(Pixel*Frame)             : 0.142
Stream size                    : 1.53 GiB (98%)
Writing library                : x264 core 161
Encoding settings              : cabac=1 / ref=1 / deblock=1:0:0 / analyse=0x3:0x113 / me=hex / subme=2 / psy=1 / psy_rd=1.00:0.00 / mixed_ref=0 / me_range=16 / chroma_me=1 / trellis=0 / 8x8dct=1 / cqm=0 / deadzone=21,11 / fast_pskip=1 / chroma_qp_offset=0 / threads=24 / lookahead_threads=6 / sliced_threads=0 / nr=0 / decimate=1 / interlaced=0 / bluray_compat=0 / constrained_intra=0 / bframes=3 / b_pyramid=2 / b_adapt=1 / b_bias=0 / direct=1 / weightb=1 / open_gop=0 / weightp=1 / keyint=250 / keyint_min=25 / scenecut=40 / intra_refresh=0 / rc_lookahead=10 / rc=crf / mbtree=1 / crf=18.0 / qcomp=0.60 / qpmin=0 / qpmax=69 / qpstep=4 / ip_ratio=1.40 / aq=1:1.00
Codec configuration box        : avcC

Audio
ID                             : 3
Format                         : AAC LC
Format/Info                    : Advanced Audio Codec Low Complexity
Codec ID                       : mp4a-40-2
Duration                       : 39 min 50 s
Bit rate mode                  : Variable
Bit rate                       : 93.4 kb/s
Maximum bit rate               : 97.1 kb/s
Channel(s)                     : 2 channels
Channel layout                 : L R
Sampling rate                  : 48.0 kHz
Frame rate                     : 46.875 FPS (1024 SPF)
Compression mode               : Lossy
Stream size                    : 26.6 MiB (2%)
Default                        : Yes
Alternate group                : 1

视频截图

下载地址

云南虫谷 The.Worm.Valley.2021.EP01-16.HD1080P.X264.AAC.Mandarin.CHS.Mp4er 23.56GB:magnet:?xt=urn:btih:C3EA61E0FE43FBC08197D9E92D51EDD4F685411C

龙岭迷窟 Candle.in.The.Tomb,The.Lost.Caverns.EP01-18.2020.2160p.WEB-DL.HEVC.AAC-HQC 15.24GB:magnet:?xt=urn:btih:85B061D6E172D0BC9BDC1B956DC490A4154C347C

鬼吹灯之 怒晴湘西 Candle.In.The.Tomb,The.Wrath.Of.Time.EP01-21.2019.1080p.WEB-DL.HEVC.AAC-HQC 16.6GB:magnet:?xt=urn:btih:6C25C4F59081FA43A78F6B5CC1D59D7CEA27D95F

鬼吹灯之黄皮子坟 Candle.in.The.Tomb:The.Weasel.Grave.EP01-20.2017.1080p.WEB-DL.x264.AAC-HQC 113.31GB:magnet:?xt=urn:btih:F3D45603BC53CDB05F35D434FF6AB62A056D31D9

鬼吹灯之精绝古城 Candle.in.The.Tomb.EP01-21.2016.1080p.WEB-DL.x264.AAC-HQC 15.59GB:magnet:?xt=urn:btih:A3A16B1D7A0AAAA70F4658EAFAF1A014B1BE35FC

鬼吹灯之精绝古城.21集全.Candle.in.the.Tomb.2016.Complete.EP01-EP21.HD1080P.X264.AAC-882FX 14.45GB:magnet:?xt=urn:btih:9DC33D6E7A074357BA6E72B712B847637DBF1502

鬼吹灯系列电影六部合集HDBD1080P高清国语中字 15.37GB:magnet:?xt=urn:btih:729DE7BB84C9DA4A792C589FCC062A654A1E3630

留下评论

Secured By miniOrange