2021美国动作犯罪 F9 速度与激情9 [中字][WEB-MKV-1080p]

%title插图%num

◎译  名 速度与激情9/F9狂野时速(港)/FF9/玩命关头9(台)
◎片  名 F9: The Fast Saga
◎年  代 2021
◎国  家 美国/泰国/加拿大
◎类  别 动作/犯罪
◎语  言 英语
◎豆瓣评分 5.5/10 (130965人评价)
◎豆瓣链接 https://movie.douban.com/subject/25728006/
◎IMDb评分  5.4/10 from 45,550 users
◎IMDb链接  https://www.imdb.com/title/tt5433138/
◎导  演 林诣彬 Justin Lin
◎主  演 范·迪塞尔 Vin Diesel
      约翰·塞纳 John Cena
      米歇尔·罗德里格兹 Michelle Rodriguez
      乔丹娜·布鲁斯特 Jordana Brewster
      泰瑞斯·吉布森 Tyrese Gibson
      卢达·克里斯 Ludacris
      查理兹·塞隆 Charlize Theron
      海伦·米伦 Helen Mirren
      姜成镐 Sung Kang
      娜塔莉·伊曼纽尔 Nathalie Emmanuel
      迈克尔·鲁克 Michael Rooker
      卢卡斯·布莱克 Lucas Black
      杜俊纬 Jason Tobin
      卡迪·B Cardi B
      吉姆·帕拉克 Jim Parrack
      芬恩·科尔 Finn Cole
      安珀·西耶娜 Amber Sienna
      马丁·福特 Martyn Ford
      艾拉·沃克 Ella Walker
      泽井杏奈 Anna Sawai
      图厄·埃尔斯特德·拉斯姆森 Thue Ersted Rasmussen
      米拉吉·格尔比克 Miraj Grbic
      吉米·斯达 Jimmy Star
      莱克斯·艾尔 Lex Elle
      温尼·贝内特 Vinnie Bennett
      马克·克雷尼克 Mark Krenik
      杰森·斯坦森 Jason Statham

◎简  介

“唐老大”多姆·托莱多(范·迪塞尔 饰)与莱蒂(米歇尔·罗德里格兹 饰)和他的儿子小布莱恩,过上了远离纷扰的平静生活。然而他们也知道,安宁之下总潜藏着危机。这一次,为了保护他所爱的人,唐老大不得不直面过去。他和伙伴们面临的是一场足以引起世界动荡的阴谋,以及一个前所未遇的一流杀手和高能车手。而这个名叫雅各布(约翰·塞纳 饰)的人,恰巧是多姆遗落在外的亲弟弟。

视频信息

General
Unique ID                      : 213498027949562178954431894672466525243 (0xA09E39797586442CA3EEDFE964A83C3B)
Complete name                  : D:\迅雷下载\Fast.and.Furious.F9.The.Fast.Saga.2021.WEB-DL.1080p.X264\速度与激情9.Fast.and.Furious.F9.The.Fast.Saga.2021.WEB-DL.1080p.X264.mkv
Format                         : Matroska
Format version                 : Version 2
File size                      : 2.81 GiB
Duration                       : 2 h 22 min
Overall bit rate               : 2 820 kb/s
Encoded date                   : UTC 2021-07-31 03:07:03
Writing application            : mkvmerge v4.8.0 ('I Got The...') 编译于 May 24 2011 03:12:58
Writing library                : libebml v1.2.0 + libmatroska v1.1.0

Video
ID                             : 1
Format                         : AVC
Format/Info                    : Advanced Video Codec
Format profile                 : High@L4.1
Format settings                : CABAC / 4 Ref Frames
Format settings, CABAC         : Yes
Format settings, Reference fra : 4 frames
Muxing mode                    : Header stripping
Codec ID                       : V_MPEG4/ISO/AVC
Duration                       : 2 h 22 min
Bit rate                       : 2 500 kb/s
Width                          : 1 920 pixels
Height                         : 800 pixels
Display aspect ratio           : 2.40:1
Frame rate mode                : Constant
Frame rate                     : 23.976 (23976/1000) FPS
Color space                    : YUV
Chroma subsampling             : 4:2:0
Bit depth                      : 8 bits
Scan type                      : Progressive
Bits/(Pixel*Frame)             : 0.068
Stream size                    : 2.44 GiB (87%)
Writing library                : x264 core 152 r2851M ba24899
Encoding settings              : cabac=1 / ref=4 / deblock=1:-1:-1 / analyse=0x3:0x113 / me=umh / subme=9 / psy=1 / psy_rd=1.00:0.15 / mixed_ref=1 / me_range=24 / chroma_me=1 / trellis=2 / 8x8dct=1 / cqm=0 / deadzone=21,11 / fast_pskip=1 / chroma_qp_offset=-3 / threads=32 / lookahead_threads=4 / sliced_threads=0 / nr=0 / decimate=1 / interlaced=0 / bluray_compat=0 / constrained_intra=0 / bframes=3 / b_pyramid=2 / b_adapt=2 / b_bias=0 / direct=3 / weightb=1 / open_gop=0 / weightp=2 / keyint=250 / keyint_min=25 / scenecut=40 / intra_refresh=0 / rc_lookahead=50 / rc=2pass / mbtree=1 / bitrate=2500 / ratetol=1.0 / qcomp=0.60 / qpmin=0 / qpmax=69 / qpstep=4 / cplxblur=20.0 / qblur=0.5 / vbv_maxrate=31250 / vbv_bufsize=31250 / nal_hrd=none / filler=0 / ip_ratio=1.40 / aq=3:1.00
Default                        : Yes
Forced                         : No

Audio
ID                             : 2
Format                         : AC-3
Format/Info                    : Audio Coding 3
Commercial name                : Dolby Digital
Muxing mode                    : Header stripping
Codec ID                       : A_AC3
Duration                       : 2 h 22 min
Bit rate mode                  : Constant
Bit rate                       : 320 kb/s
Channel(s)                     : 6 channels
Channel layout                 : L R C LFE Ls Rs
Sampling rate                  : 48.0 kHz
Frame rate                     : 31.250 FPS (1536 SPF)
Compression mode               : Lossy
Stream size                    : 327 MiB (11%)
Service kind                   : Complete Main
Default                        : Yes
Forced                         : No

Text
ID                             : 3
Format                         : SSA
Codec ID                       : S_TEXT/SSA
Codec ID/Info                  : Sub Station Alpha
Compression mode               : Lossless
Default                        : Yes
Forced                         : No

视频截图

下载地址

速度与激情9.Fast.and.Furious.F9.The.Fast.Saga.2021.WEB-DL.1080p.X264 2.81GB:magnet:?xt=urn:btih:E5B09256B764471E15920477CC024D2BA435E533

速度与激情9.国英双语.国配字幕.中英字幕Fast.and.Furious.F9.The.Fast.Saga.2021.1080p.WEB.DDP5.x264-纯净版 11.44GB:magnet:?xt=urn:btih:022F08F05BEA4C1EA4CDF7B807A4B5AE4D1D5E94

速度与激情9.国英双语.国配字幕.中英字幕Fast.and.Furious.F9.The.Fast.Saga.2021.2160p.WEB-DL.x265.10bit.HDR.DDP5.1.Atmos-纯净版 15.52GB:magnet:?xt=urn:btih:B38B213607B01137D1621509EF88412C9C0D4161

速度与激情9[导演剪辑版][中文字幕].F9.The.Fast.Saga.2021.DC.2160p.HDR.UHD.BluRay.TrueHD.7.1.Atmos.2Audio.x265-10bit-10007@BBQDDQ.COM 18.61GB:magnet:?xt=urn:btih:946305A3119848655CD11448ADCD5730CF952A1A

速度与激情.特别行动.Fast.and.furious.presents.hobbs.and.shaw.2019.1080p.bluray.H265.10Bits.AC3.5.1-乐之音 2.48GB:magnet:?xt=urn:btih:BA691FE62FDDE3B40697B9FC4EC67035C663A6F5

Fast.and.Furious.Presents.Hobbs.and.Shaw.2019.BD.1080p.x265.10bit.DD5.1.国英双语.内封特效中英-FFans@leon 4.74GB:magnet:?xt=urn:btih:90897BEF568D5690A564B86E3C01153C5D5B4240

速度与激情1-8部合集 BluRay.2160p.x265.10bit-mUHD-FRDS 181.1GB:magnet:?xt=urn:btih:5BC2F8BF8156FE25A5705DF389BCE022850217DE

速度与激情.1-8.2001-2017.Bluray.1080p.H265.10Bits.AC3.5.1-乐之音 29.65GB:magnet:?xt=urn:btih:C064F949B1316E3D368931093B4B1D9A654BC534

速度与激情[国语音轨+简繁字幕].The.Fast.and.the.Furious.2001.BluRay.1080p.x265.10bit.2Audio.MNHD-10018@BBQDDQ.COM 4.33GB:magnet:?xt=urn:btih:0392832CA3EA8D90DF2C73852B4C86D8F0771F53

速度与激情2[国语音轨+简繁字幕].2.Fast.2.Furious.2003.BluRay.1080p.x265.10bit.2Audio.MNHD-10018@BBQDDQ.COM 6.72GB:magnet:?xt=urn:btih:3F36BAD4733F5FC1E81360C0FC43BB8F836233BC

速度与激情3[国语音轨+简繁字幕].The.Fast.and.the.Furious.Tokyo.Drift.2006.BluRay.1080p.x265.10bit.2Audio.MNHD-10018@BBQDDQ.COM 4.17GB:magnet:?xt=urn:btih:2479028E58D25E73D4DBB1C4B180638C462097E3

速度与激情4[国语音轨+简繁字幕].Fast.and.Furious.2009.BluRay.1080p.x265.10bit.2Audio.MNHD-10018@BBQDDQ.COM 4.08GB:magnet:?xt=urn:btih:44C347034816DCB747C299FBBA80C6F3385F7305

速度与激情5[国语音轨+简繁字幕].Fast.Five.2011.BluRay.1080p.x265.10bit.2Audio.MNHD-10018@BBQDDQ.COM 6.75GB:magnet:?xt=urn:btih:8B0002B4744AE54983D0E7355E519B879E062A43

速度与激情6[国语音轨+简繁字幕].Fast.and.Furious.6.2013.BluRay.1080p.x265.10bit.2Audio.MNHD-10018@BBQDDQ.COM 5.50GB:magnet:?xt=urn:btih:6E896405F41000C42C328C59846ACDA01A2F03DE

速度与激情7[国语音轨+简繁字幕].Fast.and.Furious.7.2015.EXTENDED.BluRay.1080p.x265.10bit.2Audio.MNHD-10018@BBQDDQ.COM 6.45GB:magnet:?xt=urn:btih:13A6E30633419C408E885A26357F1FD5B60E1B0B

速度与激情8[国语音轨+简繁字幕].The.Fate.of.the.Furious.2017.BluRay.1080p.x265.10bit.2Audio.MNHD-10018@BBQDDQ.COM 5.85GB:magnet:?xt=urn:btih:D9975D9CEAA2BFD6A88BE4EA0FD959E56FED1C65

速度与激情9[中文字幕].Fast.and.Furious.9.2021.2160p.WEB-DL.HDR.HEVC.Atmos.DDP.5.1-10010@BBQDDQ.COM 15.15GB:magnet:?xt=urn:btih:8E5DFF72EED64118F58445FF99A3F0991B9B983E

留下评论

Secured By miniOrange