2021日本动画喜剧 Gintama: The Final:银魂:最终篇 THE FINAL [日语中字][WEB-MP4-1080p]

%title插图%num

◎译  名 银魂:最终篇/アニメ劇場版銀魂
◎片  名 Gintama: The Final
◎年  代 2021
◎产  地 日本
◎类  别 剧情/喜剧
◎语  言 日语
◎上映日期 2021-01-08(日本)
◎豆瓣评分 7.8/10 from 580 users
◎豆瓣链接 https://douban.com/subject/34984521/
◎IMDB评分 9.2/10 from 915 users
◎IMDB链接 https://douban.com/subject/34984521/
◎片  长 104分钟
◎导  演 宫胁千鹤 Chizuru Miyawaki
◎编  剧 空知英秋 Hideaki Sorachi
◎主  演 杉田智和 Tomokazu Sugita
       阪口大助 Daisuke Sakaguchi
       钉宫理惠 Rie Kugimiya
       子安武人 Takehito Koyasu
       石田彰 Akira Ishida
       千叶进步 Susumu Chiba
       中井和哉 Kazuya Nakai
       铃村健一 Kenichi Suzumura
       太田哲治 Tetsuharu Ohta
       日野聪 Satoshi Hino
       大塚芳忠 Hôchû Ôtsuka
       山寺宏一 Kôichi Yamadera
       雪野五月 Satsuki Yukino
       小林优 Yu Kobayashi
       折笠富美子 Fumiko Orikasa
       甲斐田裕子 Yûko Kaida
       立木文彦 Fumihiko Tachiki
       三木真一郎 Shinichirô Miki
       森川智之 Toshiyuki Morikawa
       平野绫 Aya Hirano
       若本规夫 Norio Wakamoto
       速水奖 Shô Hayami
       空知英秋 Hideaki Sorachi
       井上和彦 Kazuhiko Inoue

◎标  签 银魂 | 銀魂 | 日本 | 剧场版 | 空知英秋 | 动画 | 动漫 | 日本动画

◎简  介

#银魂#动画完全新作剧场版定名为《银魂 THE FINAL》,并宣布将于2021年1月8日在日本上映!

视频信息

General
Complete name                  : D:\迅雷下载\[BeanSub][Gintama the Final 2021][Movie][CHS][1080P][AVC_AAC](62F54958).mp4
Format                         : MPEG-4
Format profile                 : Base Media
Codec ID                       : isom (isom/avc1)
File size                      : 2.36 GiB
Duration                       : 1 h 43 min
Overall bit rate mode          : Variable
Overall bit rate               : 3 257 kb/s
Encoded date                   : UTC 2021-07-31 07:19:32
Tagged date                    : UTC 2021-07-31 07:19:32

Video
ID                             : 1
Format                         : AVC
Format/Info                    : Advanced Video Codec
Format profile                 : High@L5
Format settings                : CABAC / 7 Ref Frames
Format settings, CABAC         : Yes
Format settings, Reference fra : 7 frames
Codec ID                       : avc1
Codec ID/Info                  : Advanced Video Coding
Duration                       : 1 h 43 min
Bit rate                       : 2 876 kb/s
Maximum bit rate               : 30.9 Mb/s
Width                          : 1 920 pixels
Height                         : 1 080 pixels
Display aspect ratio           : 16:9
Frame rate mode                : Constant
Frame rate                     : 23.976 (24000/1001) FPS
Color space                    : YUV
Chroma subsampling             : 4:2:0
Bit depth                      : 8 bits
Scan type                      : Progressive
Bits/(Pixel*Frame)             : 0.058
Stream size                    : 2.09 GiB (88%)
Writing library                : x264 core 120 r2164 da19765
Encoding settings              : cabac=1 / ref=7 / deblock=1:-1:-1 / analyse=0x3:0x113 / me=umh / subme=10 / psy=1 / psy_rd=0.60:0.05 / mixed_ref=1 / me_range=24 / chroma_me=1 / trellis=2 / 8x8dct=1 / cqm=0 / deadzone=21,11 / fast_pskip=0 / chroma_qp_offset=-3 / threads=24 / sliced_threads=0 / nr=0 / decimate=1 / interlaced=0 / bluray_compat=0 / constrained_intra=0 / bframes=4 / b_pyramid=2 / b_adapt=2 / b_bias=0 / direct=3 / weightb=1 / open_gop=0 / weightp=2 / keyint=240 / keyint_min=1 / scenecut=40 / intra_refresh=0 / rc_lookahead=40 / rc=crf / mbtree=1 / crf=20.0 / qcomp=0.50 / qpmin=0 / qpmax=69 / qpstep=4 / ip_ratio=1.40 / aq=2:0.90
Encoded date                   : UTC 2021-07-31 07:19:32
Tagged date                    : UTC 2021-07-31 07:19:49
Codec configuration box        : avcC

Audio
ID                             : 2
Format                         : AAC LC
Format/Info                    : Advanced Audio Codec Low Complexity
Codec ID                       : mp4a-40-2
Duration                       : 1 h 43 min
Bit rate mode                  : Variable
Bit rate                       : 384 kb/s
Maximum bit rate               : 528 kb/s
Channel(s)                     : 6 channels
Channel layout                 : C L R Ls Rs LFE
Sampling rate                  : 48.0 kHz
Frame rate                     : 46.875 FPS (1024 SPF)
Compression mode               : Lossy
Stream size                    : 280 MiB (12%)
Language                       : Japanese
Encoded date                   : UTC 2021-07-31 02:52:10
Tagged date                    : UTC 2021-07-31 07:19:49

视频截图

下载地址

[BeanSub][Gintama the Final 2021][Movie][CHS][1080P][AVC_AAC](62F54958).mp4 2.36GB:magnet:?xt=urn:btih:8693A1F1E3802535C7D0D65DB9B15A262DCB633F

动画版

[DBD-Raws][银魂][S1][01-49][1080P][BDRip][HEVC-10bit][FLAC][MKV] 33.06GB:magnet:?xt=urn:btih:85e0741e9163d18f41ed70ca12b561cd2f97291f&tr=http://open.acgtracker.com:1096/announce

[DBD-Raws][银魂/GINTAMA/ぎんたま][S2][50-99TV+特别篇+特典映像][1080P][BDRip][HEVC-10bit][FLAC][MKV] 33.22GB:magnet:?xt=urn:btih:de5a77f9dbf53268b147521943d6ecd15fcec10a&tr=http://open.acgtracker.com:1096/announce

[DBD-Raws][银魂][S3][100-150TV+特别篇][1080P][BDRip][HEVC-10bit][FLAC][MKV] 32.67GB:magnet:?xt=urn:btih:b8fd8f8ff516d75c1a6bd82b534d838e9c748c1a&tr=http://open.acgtracker.com:1096/announce

[DBD-Raws][银魂][S4][151-201TV+特别篇][1080P][BDRip][HEVC-10bit][FLAC][MKV] 35.54GB:magnet:?xt=urn:btih:b72c7d4ca46149113354d18f74a8247a7b9990a2&tr=http://open.acgtracker.com:1096/announce

[DBD-Raws][银魂’][第二季][202-265TV全集+特典映像][1080P][BDRip][HEVC-10bit][FLAC][MKV] 51.91GB:magnet:?xt=urn:btih:c715d8b25f7e90d688a3ccbb8e77a75d61572295&tr=http://open.acgtracker.com:1096/announce

[DBD-Raws][银魂°][第三季][266-316TV全集+特别篇+特典映像][1080P][BDRip][HEVC-10bit][FLAC][MKV] 47.94GB:magnet:?xt=urn:btih:eb555053ffd35e9cef0fea4ba50b3a8ae3512751&tr=http://open.acgtracker.com:1096/announce

[BeanSub][Gintama][317-328][GB][720p][MP4] 2.53GB:magnet:?xt=urn:btih:1c51a23e92ab53546c56bc236b30f37f788d3c8e&tr=http://open.acgtracker.com:1096/announce

[BeanSub][Gintama][329-341][GB][720P][MP4] 2.70GB:magnet:?xt=urn:btih:0d0d11818c8a83d45b1e5f08a050d7afeddc2f38&tr=http://open.acgtracker.com:1096/announce

[BeanSub][Gintama][BDRip][342-367][CHS][720P][MP4] 10.33GB:magnet:?xt=urn:btih:3dfafb42555b231328ceb56bfa6bf386277f9573&tr=http://open.acgtracker.com:1096/announce

[BeanSub][Gintama The Movie Kanketsuhen Yorozuya yo Eien Nare][BIG5][GB][1080P][MKV] 2.65GB:magnet:?xt=urn:btih:ae95521a1c95770ffaba96ff0d747b9323a08669&tr=http://open.acgtracker.com:1096/announce

真人版

银魂[日语中日字].Gintama.2017.BluRay.1080p.x265.10bit.DDP.5.1.MNHD-FRDS 6.90GB:magnet:?xt=urn:btih:5CBFB2DBE13D53F4FE8C71D0FC6082F05AEB29B9

[真人版][银魂 三叶篇][全三集][Web2160P][中文字幕] 2.09GB:magnet:?xt=urn:btih:14369EDE9AC6736EED285DD7187CFCF35D9B3A1B

银魂2[日语中日字].Gintama.2.2018.BluRay.1080p.x265.10bit.DDP.5.1.MNHD-FRDS 6.06GB:magnet:?xt=urn:btih:B765BDC4C188ED880565C13FCC6AEE3BDAB6F61D

留下评论

Secured By miniOrange