[2021日本剧情科幻] シン・エヴァンゲリオン劇場版:│▌:新·福音战士剧场版:终 [简繁中字][WEB-MKV-1080p]

%title插图%num

◎译  名 新·福音战士剧场版:终 / 新·福音战士剧场版:│▌ / Evangelion: 3.0+1.0 / Evangelion Shin Gekijo-ban / Rebuild of Evangelion 4.0: Final / Evangelion: 3.0+1.0 Thrice Upon a Time / Evangelion: 3.0+1.01 Thrice Upon a Time
◎片  名 シン・エ?ァン?リオン劇場版:│▌
◎年  代 2021
◎产  地 日本
◎类  别 剧情 / 科幻 / 动画
◎语  言 日语
◎上映日期 2021-03-08(日本) / 2021-08-13(美国网络)
◎IMDb评星  ★★★★★★★★☆☆
◎IMDb评分  8.2/10 from 711 users
◎IMDb链接  https://www.imdb.com/title/tt2458948/
◎豆瓣评分 9.2/10 from 84663users
◎豆瓣链接 https://movie.douban.com/subject/10428501/
◎语  言   日语
◎片  长 154分钟
◎导  演 庵野秀明 / Hideaki Anno
      鹤卷和哉 / Kazuya Tsurumaki
      中山胜一 / Nakayama Katsuichi
      前田真宏 / Mahiro Maeda
◎演  员 林原惠美 / Megumi Hayashibara
      绪方惠美 / Megumi Ogata
      宫村优子 / Yûko Miyamura
      石田彰 / Akira Ishida
      坂本真绫 / Maaya Sakamoto
      三石琴乃 / Kotono Mitsuishi
      山口由里子 / Yuriko Yamaguchi
      立木文彦 / Fumihiko Tachiki
      清川元梦 / Motomu Kiyokawa
      子安武人 / Takehito Koyasu
      优希比吕 / Hiro Yuuki
      长泽美树 / Miki Nagasawa
      山寺宏一 / Kôichi Yamadera
      麦人 / Mugihito
      川村万梨阿 / Maria Kawamura
      关智一 / Tomokazu Seki
      岩永哲哉 / Tetsuya Iwanaga
      岩男润子 / Junko Iwao
      神木隆之介 / Ryûnosuke Kamiki
◎编  剧 庵野秀明 / Hideaki Anno
◎音  乐 鹭巢诗郎 / Shirô Sagisu
◎美  术 贞本义行 / Yoshiyuki Sadamoto
◎动  画 樋口真嗣 / Shinji Higuchi
      碇谷敦 / Itagaki Atsushi
      桥本敬史 / Hashimoto Takashi
      田中将贺 / Tanaka Masayoshi

◎标  签 EVA | 庵野秀明 | 剧场版 | 日本 | 动画 | 日本动画 | 动漫 | 经典

◎简  介

成为“第三次冲击”元凶的碇真嗣,变得像废人一样……真嗣还能振作起来吗?2012年《福音战士新剧场版:Q》之后,这部动画讲述了被封印的故事的后续。

◎获奖情况

第7届豆瓣电影年度榜单 (2020)
  最值得期待的外语电影(提名)

第6届豆瓣电影年度榜单 (2019)
  最值得期待的外语电影(提名)

视频信息

General
Unique ID                      : 101800503732358240592949287110299272641 (0x4C9610586B92DE99F618EED6FA7EC5C1)
Complete name                  : D:\haohe\Downloads\追光寻影(zgxyi.fdns.uk)新·福音战士剧场版:终 官译简繁中字.Evangelion 3 0+1 01 Thrice Upon a Time 2021 1080p AMZN WEB-DL DD5.1 H264-纯净版.mkv
Format                         : Matroska
Format version                 : Version 4
File size                      : 5.77 GiB
Duration                       : 2 h 35 min
Overall bit rate               : 5 303 kb/s
Movie name                     : Evangelion: 3.0+1.01 Thrice Upon a Time (2021)
Encoded date                   : UTC 2021-08-12 16:09:30
Writing application            : mkvmerge v39.0.0 ('In The Waiting Line') 64-bit
Writing library                : libebml v1.3.9 + libmatroska v1.5.2
IMDB                           : tt2458948
TMDB                           : movie/283566

Video
ID                             : 1
Format                         : AVC
Format/Info                    : Advanced Video Codec
Format profile                 : High@L4
Format settings                : CABAC / 4 Ref Frames
Format settings, CABAC         : Yes
Format settings, Reference fra : 4 frames
Codec ID                       : V_MPEG4/ISO/AVC
Duration                       : 2 h 35 min
Bit rate mode                  : Constant
Bit rate                       : 4 660 kb/s
Nominal bit rate               : 10 000 kb/s
Width                          : 1 920 pixels
Height                         : 816 pixels
Display aspect ratio           : 2.35:1
Frame rate mode                : Constant
Frame rate                     : 24.000 FPS
Color space                    : YUV
Chroma subsampling             : 4:2:0
Bit depth                      : 8 bits
Scan type                      : Progressive
Bits/(Pixel*Frame)             : 0.124
Stream size                    : 5.07 GiB (88%)
Language                       : Japanese
Default                        : Yes
Forced                         : No
Color range                    : Limited
Color primaries                : BT.709
Transfer characteristics       : BT.709
Matrix coefficients            : BT.709

Audio
ID                             : 2
Format                         : E-AC-3
Format/Info                    : Enhanced AC-3
Commercial name                : Dolby Digital Plus
Codec ID                       : A_EAC3
Duration                       : 2 h 35 min
Bit rate mode                  : Constant
Bit rate                       : 640 kb/s
Channel(s)                     : 6 channels
Channel layout                 : L R C LFE Ls Rs
Sampling rate                  : 48.0 kHz
Frame rate                     : 31.250 FPS (1536 SPF)
Compression mode               : Lossy
Stream size                    : 713 MiB (12%)
Language                       : Japanese
Service kind                   : Complete Main
Default                        : Yes
Forced                         : No

Text #1
ID                             : 3
Format                         : UTF-8
Codec ID                       : S_TEXT/UTF8
Codec ID/Info                  : UTF-8 Plain Text
Duration                       : 2 h 34 min
Bit rate                       : 52 b/s
Count of elements              : 1770
Stream size                    : 59.6 KiB (0%)
Title                          : Simplified
Language                       : Chinese
Default                        : Yes
Forced                         : No

Text #2
ID                             : 4
Format                         : UTF-8
Codec ID                       : S_TEXT/UTF8
Codec ID/Info                  : UTF-8 Plain Text
Duration                       : 2 h 34 min
Bit rate                       : 47 b/s
Count of elements              : 1760
Stream size                    : 53.8 KiB (0%)
Title                          : Traditional
Language                       : Chinese
Default                        : No
Forced                         : No

Text #3
ID                             : 5
Format                         : UTF-8
Codec ID                       : S_TEXT/UTF8
Codec ID/Info                  : UTF-8 Plain Text
Duration                       : 2 h 34 min
Bit rate                       : 57 b/s
Count of elements              : 1782
Stream size                    : 65.4 KiB (0%)
Language                       : English
Default                        : No
Forced                         : No

Text #4
ID                             : 6
Format                         : UTF-8
Codec ID                       : S_TEXT/UTF8
Codec ID/Info                  : UTF-8 Plain Text
Duration                       : 2 h 34 min
Bit rate                       : 67 b/s
Count of elements              : 2126
Stream size                    : 76.2 KiB (0%)
Title                          : SDH
Language                       : English
Default                        : No
Forced                         : No

Text #5
ID                             : 7
Format                         : UTF-8
Codec ID                       : S_TEXT/UTF8
Codec ID/Info                  : UTF-8 Plain Text
Duration                       : 2 h 33 min
Bit rate                       : 88 b/s
Count of elements              : 2487
Stream size                    : 99.5 KiB (0%)
Title                          : SDH
Language                       : Japanese
Default                        : No
Forced                         : No

视频截图

下载地址

新·福音战士剧场版:终 官译简繁中字.Evangelion 3 0+1 01 Thrice Upon a Time 2021 1080p AMZN WEB-DL DD5.1 H264-纯净版 5.77GB:magnet:?xt=urn:btih:205DBAA046030E19D7DF4395DEB1CE47F75AA310

新·福音战士剧场版 序、破、Q、终 四部全集 国日英3语.官译中字Evangelion Amazon 2007-2021 WEB 1080p H264-纯净版 19.98GB:magnet:?xt=urn:btih:10F24181AFD6B6B7578E98ED9CF87B9AD6F7130A

[整理搬运] 新世纪福音战士 (新世纪エヴァンゲリオン):TV动画(初版&重制)+新老剧场版+ONA+CD++其他;日语,外挂简中&英文字幕 (整理时间:2021.07.16) 168.5GB:magnet:?xt=urn:btih:425B88ED25D9182570230104AA36D75A8AE2441E

留下评论

Secured By miniOrange