[2021加拿大动作科幻]Snake Eyes: G.I. Joe Origins:特种部队:蛇眼起源 [中字][WEB-MKV-2160p(4k)]

%title插图%num

◎译  名 特种部队:蛇眼起源 / 义勇群英:蛇眼复仇战(港) / 特种部队:蛇眼之战 (台) / 特种部队:蛇眼 / 蛇眼 / Snake Eyes
◎片  名 Snake Eyes: G.I. Joe Origins
◎年  代 2021
◎产  地 加拿大 / 美国
◎类  别 动作 / 科幻 / 冒险
◎语  言 英语
◎上映日期 2021-07-23(美国)
◎IMDb链接 https://www.imdb.com/title/tt8404256/
◎IMDb评分 5.5/10 from 9745 users
◎豆瓣链接 https://movie.douban.com/subject/30396443/
◎豆瓣评分  4.6/10 from 2131 users
◎片  长 121分钟
◎导  演 罗伯特·斯文克 Robert Schwentke (id:1297058)
◎编  剧 埃文·斯彼里奥托普洛斯 Evan Spiliotopoulos (id:1298164)
       乔·施雷普内尔 Joe Shrapnel (id:1354941)
       安娜·沃特豪斯 Anna Waterhouse (id:1354942)
◎演  员 亨利·戈尔丁 Henry Golding (id:1392013)
       安德鲁·浩二 Andrew Koji (id:1396495)
       安部春香 Haruka Abe (id:1253645)
       平岳大 Takehiro Hira (id:1315569)
       石田惠理 Eri Ishida (id:1042909)
       伊科·乌艾斯 Iko Uwais (id:1319990)
       彼得·门萨 Peter Mensah (id:1040551)
       乌苏拉·科尔维罗 úrsula Corberó (id:1227369)
       萨玛拉·维文 Samara Weaving (id:1267671)
       萨缪尔·芬齐 Samuel Finzi (id:1333485)
       史蒂文·艾瑞克 Steven Allerick (id:1443005)
       马克斯·阿奇博尔德 Max Archibald (id:1459990)
       西蒙·钱 Simon Chin (id:1194078)
       詹姆斯·廖 James Hiroyuki Liao (id:1316028)
       谷垣健治 Kenji Tanigaki (id:1335515)
       肖恩·O.罗伯茨 Sean O. Roberts (id:1346349)
       贾森·戴 Jason Day (id:1009710)
       Hugh Aodh O’Brien Hugh Aodh O’Brien (id:1131487)
       迈克尔·盖恩斯 Michael Gaines (id:1284392)
       洛伦佐·迪·博纳文图拉 Lorenzo di Bonaventura (id:1282389)
       大卫·埃里森 David Ellison (id:1014408)
       杰夫·瓦克斯曼 Jeff G. Waxman (id:1458880)
       埃里克·豪萨姆 Erik Howsam (id:1458881)
       达娜·哥德伯格 Dana Goldberg (id:1458882)
       唐·格兰杰 Don Granger (id:1458883)
       布莱恩·戈德诺 Brian Goldner (id:1458884)
       马丁·托德沙罗 Martin Todsharow (id:1051406)
       波扬·巴泽里 Bojan Bazelli (id:1276543)

◎标  签 动作 / 特种部队 / 科幻 / 美国 / 2021 / 冒险 / 漫画改编 / 特工

◎简  介
  亨利·戈尔丁饰演一名因背负了复杂过去而隐忍的独行者,代号蛇眼。一次偶然,他救下了岚影一族的准接班人,从而被邀请加入他们在日本的组织。在那里,岚影一族不但教会了蛇眼如何成为一名忍者,也给了他一直想要的一个家。但当蛇眼过去的秘密被逐渐揭开,他的信誉以及对组织的忠诚也将受到考验,即便这会使他会失去最亲近的人的信任。特种部队原著中的经典角色也将在《特种部队:蛇眼起源》中一一亮相。

视频信息

General
Unique ID                      : 49622517551486790741649360699535560057 (0x2554F301D71635E876984164671E8D79)
Complete name                  : E:\Snake.Eyes.G.I.Joe.Origins.2021.2160p.WEB-DL.HDR10Plus.HEVC.Atmos.DDP5.1-10010@BBQDDQ.COM.mkv
Format                         : Matroska
Format version                 : Version 4
File size                      : 13.3 GiB
Duration                       : 2 h 1 min
Overall bit rate               : 15.7 Mb/s
Movie name                     : Snake Eyes G.I. Joe Origins
Encoded date                   : UTC 2021-08-18 07:34:25
Writing application            : mkvmerge v51.0.0 ('I Wish') 64-bit
Writing library                : libebml v1.4.0 + libmatroska v1.6.2
Cover                          : Yes
Attachments                    : Cover.jpg

Video
ID                             : 1
Format                         : HEVC
Format/Info                    : High Efficiency Video Coding
Format profile                 : Main 10@L5@Main
HDR format                     : SMPTE ST 2094 App 4, Version 1, HDR10+ Profile B compatible
Codec ID                       : V_MPEGH/ISO/HEVC
Duration                       : 2 h 1 min
Bit rate                       : 14.9 Mb/s
Width                          : 3 840 pixels
Height                         : 1 600 pixels
Display aspect ratio           : 2.40:1
Frame rate mode                : Constant
Frame rate                     : 23.976 (24000/1001) FPS
Color space                    : YUV
Chroma subsampling             : 4:2:0
Bit depth                      : 10 bits
Bits/(Pixel*Frame)             : 0.101
Stream size                    : 12.7 GiB (95%)
Default                        : Yes
Forced                         : No
Color range                    : Limited
Color primaries                : BT.2020
Transfer characteristics       : PQ
Matrix coefficients            : BT.2020 non-constant
Mastering display color primar : Display P3
Mastering display luminance    : min: 0.0001 cd/m2, max: 1000 cd/m2
Maximum Content Light Level    : 635 cd/m2
Maximum Frame-Average Light Le : 281 cd/m2

Audio
ID                             : 2
Format                         : E-AC-3 JOC
Format/Info                    : Enhanced AC-3 with Joint Object Coding
Commercial name                : Dolby Digital Plus with Dolby Atmos
Codec ID                       : A_EAC3
Duration                       : 2 h 1 min
Bit rate mode                  : Constant
Bit rate                       : 768 kb/s
Channel(s)                     : 6 channels
Channel layout                 : L R C LFE Ls Rs
Sampling rate                  : 48.0 kHz
Frame rate                     : 31.250 FPS (1536 SPF)
Compression mode               : Lossy
Stream size                    : 667 MiB (5%)
Title                          : English
Language                       : English
Service kind                   : Complete Main
Default                        : Yes
Forced                         : No
Complexity index               : 16
Number of dynamic objects      : 15
Bed channel count              : 1 channel
Bed channel configuration      : LFE

Text #1
ID                             : 3
Format                         : UTF-8
Codec ID                       : S_TEXT/UTF8
Codec ID/Info                  : UTF-8 Plain Text
Duration                       : 1 h 52 min
Bit rate                       : 31 b/s
Count of elements              : 978
Stream size                    : 25.7 KiB (0%)
Title                          : English [SDH]
Language                       : English
Default                        : No
Forced                         : No

Text #2
ID                             : 4
Format                         : UTF-8
Codec ID                       : S_TEXT/UTF8
Codec ID/Info                  : UTF-8 Plain Text
Duration                       : 1 h 52 min
Bit rate                       : 27 b/s
Count of elements              : 790
Stream size                    : 22.9 KiB (0%)
Title                          : English
Language                       : English
Default                        : No
Forced                         : No

Text #3
ID                             : 5
Format                         : UTF-8
Codec ID                       : S_TEXT/UTF8
Codec ID/Info                  : UTF-8 Plain Text
Duration                       : 1 h 52 min
Bit rate                       : 25 b/s
Count of elements              : 790
Stream size                    : 21.4 KiB (0%)
Title                          : 简体中文
Language                       : Chinese
Default                        : Yes
Forced                         : No

Text #4
ID                             : 6
Format                         : UTF-8
Codec ID                       : S_TEXT/UTF8
Codec ID/Info                  : UTF-8 Plain Text
Duration                       : 1 h 52 min
Bit rate                       : 25 b/s
Count of elements              : 790
Stream size                    : 21.4 KiB (0%)
Title                          : 繁体中文
Language                       : Chinese
Default                        : No
Forced                         : No

Text #5
ID                             : 7
Format                         : PGS
Muxing mode                    : zlib
Codec ID                       : S_HDMV/PGS
Codec ID/Info                  : Picture based subtitle format used on BDs/HD-DVDs
Duration                       : 1 h 52 min
Bit rate                       : 18.7 kb/s
Count of elements              : 1580
Stream size                    : 15.1 MiB (0%)
Title                          : 简体中文
Language                       : Chinese
Default                        : No
Forced                         : No

Text #6
ID                             : 8
Format                         : PGS
Muxing mode                    : zlib
Codec ID                       : S_HDMV/PGS
Codec ID/Info                  : Picture based subtitle format used on BDs/HD-DVDs
Duration                       : 1 h 52 min
Bit rate                       : 19.1 kb/s
Count of elements              : 1580
Stream size                    : 15.4 MiB (0%)
Title                          : 繁体中文
Language                       : Chinese
Default                        : No
Forced                         : No

Text #7
ID                             : 9
Format                         : PGS
Muxing mode                    : zlib
Codec ID                       : S_HDMV/PGS
Codec ID/Info                  : Picture based subtitle format used on BDs/HD-DVDs
Duration                       : 1 h 52 min
Bit rate                       : 29.0 kb/s
Count of elements              : 1580
Stream size                    : 23.4 MiB (0%)
Title                          : 简英双语
Language                       : Chinese
Default                        : No
Forced                         : No

Text #8
ID                             : 10
Format                         : PGS
Muxing mode                    : zlib
Codec ID                       : S_HDMV/PGS
Codec ID/Info                  : Picture based subtitle format used on BDs/HD-DVDs
Duration                       : 1 h 52 min
Bit rate                       : 29.4 kb/s
Count of elements              : 1580
Stream size                    : 23.7 MiB (0%)
Title                          : 繁英双语
Language                       : Chinese
Default                        : No
Forced                         : No

视频截图

下载地址

特种部队:蛇眼起源[中文字幕].Snake.Eyes.G.I.Joe.Origins.2021.2160p.WEB-DL.HDR10Plus.HEVC.Atmos.DDP5.1-10010@BBQDDQ.COM 13.35GB:magnet:?xt=urn:btih:9E7F8F7C80B86400A5038C35FA462D779E16DB0F

特种部队·眼镜蛇的崛起.G.I.Joe.The.Rise.Of.Cobra.2009.720p.BluRay.x264.AC3-CMCT 2.40GB:magnet:?xt=urn:btih:27b5b5b8a17a5e1c71dac78e6aba770b2a250f1a

[特种部队2:全面反击].G.I.Joe.Retaliation.2013.BluRay.720p.x264.AC3-CMCT 3.31GB:magnet:?xt=urn:btih:744833E3D986480FB16F622D7017429F0267C2BF

留下评论

Secured By miniOrange