画江湖之不良人1-4季全

%title插图%num

别名:画江湖之不良人Ⅳ / 画江湖之不良人 第四季 / 画江湖之不良人 第4季
导演:舒奕橙  
编剧:舒奕橙 于孟佳 李佳炫 
主演:边江 申秋香 赵毅 阎萌萌 赵梦娇 惠龙 白雪岑 
类型:动作 动画 武侠 
制片国家/地区:中国大陆
语言:汉语普通话
集数:13
单集片长:27分钟
豆瓣链接:https://movie.douban.com/subject/34896010/

剧情简介: 
  《画江湖之不良人 第4季》热血回归,十万大山危机四伏,苗疆之行艰难险阻。 神秘的十二峒有着怎样不为人知的秘密?面对强大的各方势力,李星云等人能否全身而退?此段神秘莫测的苗疆之旅,即将启程…

视频信息

General
Complete name                  : D:\迅雷下载\[GM-Team][国漫][画江湖之不良人 第4季][Drawing Jianghu of Bu Liang Ren Ⅳ][2021][01-13 Fin][AVC][GB][1080P]\[GM-Team][国漫][画江湖之不良人 第4季][Drawing Jianghu of Bu Liang Ren Ⅳ][2021][13][AVC][GB][1080P].mp4
Format                         : MPEG-4
Format profile                 : Base Media
Codec ID                       : isom (isom/iso2/avc1/mp41)
File size                      : 1.80 GiB
Duration                       : 43 min 28 s
Overall bit rate mode          : Variable
Overall bit rate               : 5 942 kb/s
Writing application            : Lavf58.74.100

Video
ID                             : 1
Format                         : AVC
Format/Info                    : Advanced Video Codec
Format profile                 : High@L4
Format settings                : CABAC / 4 Ref Frames
Format settings, CABAC         : Yes
Format settings, Reference fra : 4 frames
Codec ID                       : avc1
Codec ID/Info                  : Advanced Video Coding
Duration                       : 43 min 28 s
Bit rate                       : 5 842 kb/s
Width                          : 1 920 pixels
Height                         : 1 080 pixels
Display aspect ratio           : 16:9
Frame rate mode                : Variable
Frame rate                     : 25.000 FPS
Minimum frame rate             : 24.993 FPS
Maximum frame rate             : 25.007 FPS
Color space                    : YUV
Chroma subsampling             : 4:2:0
Bit depth                      : 8 bits
Scan type                      : Progressive
Bits/(Pixel*Frame)             : 0.113
Stream size                    : 1.77 GiB (98%)
Writing library                : ptw-1.0.133 rcm-adapt vs-96 vwk
Color range                    : Limited
Color primaries                : BT.709
Transfer characteristics       : BT.709
Matrix coefficients            : BT.709
Codec configuration box        : avcC

Audio
ID                             : 2
Format                         : AAC LC
Format/Info                    : Advanced Audio Codec Low Complexity
Codec ID                       : mp4a-40-2
Duration                       : 43 min 28 s
Bit rate mode                  : Variable
Bit rate                       : 93.4 kb/s
Maximum bit rate               : 96.7 kb/s / 96.7 kb/s
Channel(s)                     : 2 channels
Channel layout                 : L R
Sampling rate                  : 48.0 kHz
Frame rate                     : 46.875 FPS (1024 SPF)
Compression mode               : Lossy
Stream size                    : 29.0 MiB (2%)
Default                        : Yes
Alternate group                : 1

视频截图

下载地址

动画版:

《画江湖之不良人》 【第1-2季】【全54集+40集】【第1季720p 第二季1080P】 22.85GB:magnet:?xt=urn:btih:F6828729967E0DBE176E6FA3364CDD4647D212A5

[GM-Team][国漫][画江湖之不良人 第3季][Drawing Jianghu of Bu Liang Ren Ⅲ][2019][01-40][HEVC][GB][1080P] 21.69GB:magnet:?xt=urn:btih:C708A2E0C05D49C97299711AC558CB45C7F5D636

[GM-Team][国漫][画江湖之不良人 第4季][Drawing Jianghu of Bu Liang Ren Ⅳ][2021][01-13 Fin][AVC][GB][1080P] 7.97GB:magnet:?xt=urn:btih:111CEDAB252D9767FA807A3F081717F21BFBD8E1

网剧真人版

Bu.Liang.Ren.EP01-12.2016.1080p.WEB-DL.x264.AAC-HQC 7.17GB:magnet:?xt=urn:btih:B67605C5D029A7FF322615354FA5A048AFA177DB

Bu.Liang.Ren.S02.2016.1080p.WEB-DL.x264.AAC-HQC 7.51GB:magnet:?xt=urn:btih:21CDCAD0CB7614D849B3B233D1EE1C251E21FA83

留下评论

Secured By miniOrange