2021美国动画儿童 Trollhunters: Rise of the Titans 巨怪猎人:泰坦的觉醒 [国粤英三语/简繁中字][WEB-MKV-1080p]

%title插图%num

◎译  名 巨怪猎人:泰坦的觉醒/巨怪猎人:泰坦的崛起
◎片  名 Trollhunters: Rise of the Titans
◎年  代 2021
◎产  地 美国,墨西哥
◎类  别 动画 / 儿童 / 奇幻 / 冒险
◎语  言 英语
◎上映日期 2021-07-21(美国网络)
◎imdb链接  https://www.imdb.com/title/tt12851396/
◎imdb评分  7.4/10 from 787 users
◎豆瓣评分 6.7/10 from 111 users
◎豆瓣链接 https://movie.douban.com/subject/35169996/
◎片  长 94分钟
◎导  演 弗朗西斯科·鲁伊斯-贝拉斯科 Francisco Ruiz-Velasco
◎编  剧 马克·古根海姆 Marc Guggenheim / 丹·哈格曼 Dan Hageman / 凯文·哈格曼 Kevin Hageman
◎主  演 史蒂文·元 Steven Yeun
      阿尔弗雷德·莫里纳 Alfred Molina
      尼克·奥弗曼 Nick Offerman
      埃米尔·赫斯基 Emile Hirsch
      尼克·弗罗斯特 Nick Frost
      迭戈·卢纳 Diego Luna
      凯尔希·格兰莫 Kelsey Grammer
      切瑞·海恩斯 Cheryl Hines
      查理·塞斯顿 Charlie Saxton
      雷克西·梅德拉诺 Lexi Medrano

◎标  签 动画 | 美国 | 巨怪猎人 | 电影 | 奇幻 | 2021 | 美国电影 | 冒险

◎简  介

故事背景是德尔·托罗在其《天外三侠:世外桃源的传说》三部曲中创造的世界。阿卡狄亚看似是一个普通的小镇,但它位于魔法和神秘线的中心,这使得它成为巨怪、外星人和巫师等异界生物之间许多战斗的枢纽。现在,他们必须联手与奥术团作战,以争夺对束缚他们所有人的魔法的控制权。

视频信息

General
Unique ID                      : 228389490014770451886016886275410150760 (0xABD2373D60536B88F4A53C3A595EC568)
Complete name                  : D:\追光寻影(zgxyi.fdns.uk)巨怪猎人:泰坦的觉醒.国粤英三语.简繁中字Trollhunters.Rise.of.the.Titans.2021.1080p.WEB.Atmos.DDP5.1.x264-纯净版.mkv
Format                         : Matroska
Format version                 : Version 4
File size                      : 5.36 GiB
Duration                       : 1 h 46 min
Overall bit rate mode          : Variable
Overall bit rate               : 7 216 kb/s
Encoded date                   : UTC 2021-07-21 14:33:48
Writing application            : mkvmerge v39.0.0 ('In The Waiting Line') 64-bit
Writing library                : libebml v1.3.9 + libmatroska v1.5.2

Video
ID                             : 1
Format                         : AVC
Format/Info                    : Advanced Video Codec
Format profile                 : Main@L4
Format settings                : CABAC / 3 Ref Frames
Format settings, CABAC         : Yes
Format settings, Reference fra : 3 frames
Codec ID                       : V_MPEG4/ISO/AVC
Duration                       : 1 h 46 min
Bit rate mode                  : Variable
Bit rate                       : 5 165 kb/s
Nominal bit rate               : 6 326 kb/s
Maximum bit rate               : 10.7 Mb/s
Width                          : 1 920 pixels
Height                         : 1 080 pixels
Display aspect ratio           : 16:9
Frame rate mode                : Constant
Frame rate                     : 23.976 (24000/1001) FPS
Color space                    : YUV
Chroma subsampling             : 4:2:0
Bit depth                      : 8 bits
Scan type                      : Progressive
Bits/(Pixel*Frame)             : 0.104
Stream size                    : 3.84 GiB (72%)
Writing library                : x264 core 148 r2722 1b0121b
Encoding settings              : cabac=1 / ref=3 / deblock=1:0:0 / analyse=0x1:0x111 / me=umh / subme=10 / psy=1 / psy_rd=1.00:0.00 / mixed_ref=1 / me_range=24 / chroma_me=1 / trellis=2 / 8x8dct=0 / cqm=0 / deadzone=21,11 / fast_pskip=1 / chroma_qp_offset=-2 / threads=8 / lookahead_threads=1 / sliced_threads=0 / nr=0 / decimate=1 / interlaced=0 / bluray_compat=0 / stitchable=1 / constrained_intra=0 / bframes=2 / b_pyramid=0 / b_adapt=2 / b_bias=0 / direct=3 / weightb=1 / open_gop=0 / weightp=2 / keyint=250 / keyint_min=23 / scenecut=0 / intra_refresh=0 / rc_lookahead=48 / rc=2pass / mbtree=1 / bitrate=6326 / ratetol=1.0 / qcomp=0.50 / qpmin=6 / qpmax=51 / qpstep=4 / cplxblur=20.0 / qblur=0.5 / vbv_maxrate=10725 / vbv_bufsize=14300 / nal_hrd=vbr / filler=0 / ip_ratio=1.40 / aq=1:1.00
Default                        : Yes
Forced                         : No

Audio #1
ID                             : 2
Format                         : E-AC-3
Format/Info                    : Enhanced AC-3
Commercial name                : Dolby Digital Plus
Codec ID                       : A_EAC3
Duration                       : 1 h 46 min
Bit rate mode                  : Constant
Bit rate                       : 640 kb/s
Channel(s)                     : 6 channels
Channel layout                 : L R C LFE Ls Rs
Sampling rate                  : 48.0 kHz
Frame rate                     : 31.250 FPS (1536 SPF)
Compression mode               : Lossy
Stream size                    : 487 MiB (9%)
Title                          : Mandarin (Guoyu)
Language                       : Chinese
Service kind                   : Complete Main
Default                        : Yes
Forced                         : No

Audio #2
ID                             : 3
Format                         : E-AC-3
Format/Info                    : Enhanced AC-3
Commercial name                : Dolby Digital Plus
Codec ID                       : A_EAC3
Duration                       : 1 h 46 min
Bit rate mode                  : Constant
Bit rate                       : 640 kb/s
Channel(s)                     : 6 channels
Channel layout                 : L R C LFE Ls Rs
Sampling rate                  : 48.0 kHz
Frame rate                     : 31.250 FPS (1536 SPF)
Compression mode               : Lossy
Stream size                    : 487 MiB (9%)
Title                          : Cantonese
Language                       : Chinese
Service kind                   : Complete Main
Default                        : No
Forced                         : No

Audio #3
ID                             : 4
Format                         : E-AC-3 JOC
Format/Info                    : Enhanced AC-3 with Joint Object Coding
Commercial name                : Dolby Digital Plus with Dolby Atmos
Codec ID                       : A_EAC3
Duration                       : 1 h 46 min
Bit rate mode                  : Constant
Bit rate                       : 768 kb/s
Channel(s)                     : 6 channels
Channel layout                 : L R C LFE Ls Rs
Sampling rate                  : 48.0 kHz
Frame rate                     : 31.250 FPS (1536 SPF)
Compression mode               : Lossy
Stream size                    : 584 MiB (11%)
Title                          : English
Language                       : English
Service kind                   : Complete Main
Default                        : No
Forced                         : No
Complexity index               : 16
Number of dynamic objects      : 15
Bed channel count              : 1 channel
Bed channel configuration      : LFE

Text #1
ID                             : 5
Format                         : UTF-8
Codec ID                       : S_TEXT/UTF8
Codec ID/Info                  : UTF-8 Plain Text
Duration                       : 1 h 44 min
Bit rate                       : 45 b/s
Count of elements              : 1231
Stream size                    : 35.1 KiB (0%)
Title                          : Simplified
Language                       : Chinese
Default                        : Yes
Forced                         : No

Text #2
ID                             : 6
Format                         : UTF-8
Codec ID                       : S_TEXT/UTF8
Codec ID/Info                  : UTF-8 Plain Text
Duration                       : 1 h 44 min
Bit rate                       : 42 b/s
Count of elements              : 1265
Stream size                    : 32.3 KiB (0%)
Title                          : Traditional
Language                       : Chinese
Default                        : No
Forced                         : No

Text #3
ID                             : 7
Format                         : UTF-8
Codec ID                       : S_TEXT/UTF8
Codec ID/Info                  : UTF-8 Plain Text
Duration                       : 1 h 38 min
Bit rate                       : 62 b/s
Count of elements              : 1616
Stream size                    : 44.9 KiB (0%)
Title                          : SDH
Language                       : English
Default                        : No
Forced                         : No

视频截图

下载地址

巨怪猎人:泰坦的觉醒.国粤英三语.简繁中字Trollhunters.Rise.of.the.Titans.2021.1080p.WEB.Atmos.DDP5.1.x264-纯净版 5.36GB:magnet:?xt=urn:btih:72D6F22EB48063104E0A7B0D05D326CA21202ABD

巨怪猎人:泰坦的觉醒.官方简繁中文字幕Trollhunters.Rise.of.the.Titans.2021.1080p.WEB.DDP5.1.Atmos.HDR.H265-纯净版 4.32GB:magnet:?xt=urn:btih:7A6029FA88B15C7340B7AD8DD7ADE377869F5A42

留下评论

Secured By miniOrange