美国喜剧动画Peter Rabbit 2: The Runaway:比得兔2:逃跑计划 WEB-MKV-1080p/2160p(4k)

%title插图%num

◎译  名 比得兔2:逃跑计划
◎片  名 Peter Rabbit
◎年  代 2021
◎产  地 美国/英国/澳大利亚
◎类  别 喜剧/动画/冒险
◎语  言 英语
◎字    幕  简繁中文字幕
◎上映日期 2018-02-09(美国)/2018-03-02(中国大陆)
◎IMDb评分  6.2/10 from 2090 users
◎IMDb链接  https://www.imdb.com/title/tt8376234/
◎豆瓣评分 7.3/10 from 19026 users
◎豆瓣链接 https://movie.douban.com/subject/30213339/
◎片  长 95分钟
◎导  演 威尔·古勒 Will Gluck
◎主  演 詹姆斯·柯登 James Corden
多姆纳尔·格里森 Domhnall Gleeson
萝丝·拜恩 Rose Byrne
伊丽莎白·德比茨基 Elizabeth Debicki
玛格特·罗比 Margot Robbie
黛西·雷德利 Daisy Ridley
科林·穆迪 Colin Moody
山姆· Sam Neill
希雅 Sia
伊文·莱斯利 Ewen Leslie
费萨尔·巴齐 Fayssal Bazzi
克里斯蒂安·加扎尔 Christian Gazal
玛丽安娜·琼-巴普蒂斯特 Marianne Jean-Baptiste
加雷斯·戴维斯 Gareth Davies
山姆·哈夫特 Sam Haft
萨莎·霍勒 Sacha Horler
娜塔丽·朱 Natalie Dew
特伦尼娅·爱德华兹 Terenia Edwards
费利克斯·威廉森 Felix Williamson
许明珠 Ming-Zhu Hii
布莱恩·布朗 Bryan Brown
雷切尔·沃德 Rachel Ward
大卫·文翰 David Wenham
威尔·赖歇尔特 Will Reichelt
◎简  介
电影《比得兔2:逃跑计划》是一部由英国百年经典IP改编的真人动画电影,影片讲述了为了追求自己的“兔”生意义,年少轻狂的比得(詹姆斯·柯登 James Corden 配音)踏上了背井离乡的路并成功赢得老江湖巴拿巴的青睐、成为了团伙中的扛把子,怎料却将追随而来的昔日老友们推入死亡陷阱。 幡然醒悟后,比得化身“兔界阿汤哥”带领同伴展开海陆空三栖大营救。高空跳伞、水下救援、雪山速滑、快艇追击,无所不能。在这场冒险旅途中,比得收获了友情,理解了亲情,最终实现了自我成长,成为真正的“兔一哥”。斗智斗勇、各显神通,一系列欢乐闹趣、令人捧腹、啼笑皆非的的爆笑故事。

视频信息

General
 Unique ID                      : 214360654168250354952828904313500268068 (0xA1445C3B0E110DC1C0A9A5B02618F624)
 Complete name                  : D:\迅雷下载\追光寻影(zgxyi.fdns.uk)比得兔2:逃跑计划.简繁中文字幕.Peter.Rabbit.2.The.Runaway.2021.1080p.WEBRip.DDP5.1.Atmos.x264-纯净版.mkv
 Format                         : Matroska
 Format version                 : Version 4
 File size                      : 4.77 GiB
 Duration                       : 1 h 33 min
 Overall bit rate               : 7 309 kb/s
 Encoded date                   : UTC 2021-07-01 17:38:44
 Writing application            : mkvmerge v39.0.0 ('In The Waiting Line') 64-bit
 Writing library                : libebml v1.3.9 + libmatroska v1.5.2
 Video
 ID                             : 1
 Format                         : AVC
 Format/Info                    : Advanced Video Codec
 Format profile                 : High@L4
 Format settings                : CABAC / 5 Ref Frames
 Format settings, CABAC         : Yes
 Format settings, Reference fra : 5 frames
 Codec ID                       : V_MPEG4/ISO/AVC
 Duration                       : 1 h 33 min
 Bit rate                       : 6 539 kb/s
 Width                          : 1 918 pixels
 Height                         : 794 pixels
 Display aspect ratio           : 2.40:1
 Frame rate mode                : Constant
 Frame rate                     : 23.976 (24000/1001) FPS
 Color space                    : YUV
 Chroma subsampling             : 4:2:0
 Bit depth                      : 8 bits
 Scan type                      : Progressive
 Bits/(Pixel*Frame)             : 0.179
 Stream size                    : 4.26 GiB (89%)
 Default                        : Yes
 Forced                         : No
 Color range                    : Limited
 Color primaries                : BT.709
 Transfer characteristics       : BT.709
 Matrix coefficients            : BT.709
 Audio
 ID                             : 2
 Format                         : E-AC-3 JOC
 Format/Info                    : Enhanced AC-3 with Joint Object Coding
 Commercial name                : Dolby Digital Plus with Dolby Atmos
 Codec ID                       : A_EAC3
 Duration                       : 1 h 33 min
 Bit rate mode                  : Constant
 Bit rate                       : 768 kb/s
 Channel(s)                     : 6 channels
 Channel layout                 : L R C LFE Ls Rs
 Sampling rate                  : 48.0 kHz
 Frame rate                     : 31.250 FPS (1536 SPF)
 Compression mode               : Lossy
 Stream size                    : 513 MiB (11%)
 Title                          : English
 Language                       : English
 Service kind                   : Complete Main
 Default                        : Yes
 Forced                         : No
 Complexity index               : 16
 Number of dynamic objects      : 15
 Bed channel count              : 1 channel
 Bed channel configuration      : LFE
 Text #1
 ID                             : 3
 Format                         : ASS
 Codec ID                       : S_TEXT/ASS
 Codec ID/Info                  : Advanced Sub Station Alpha
 Duration                       : 1 h 26 min
 Bit rate                       : 213 b/s
 Count of elements              : 1385
 Compression mode               : Lossless
 Stream size                    : 135 KiB (0%)
 Language                       : Chinese
 Default                        : Yes
 Forced                         : No
 Text #2
 ID                             : 4
 Format                         : ASS
 Codec ID                       : S_TEXT/ASS
 Codec ID/Info                  : Advanced Sub Station Alpha
 Duration                       : 1 h 26 min
 Bit rate                       : 213 b/s
 Count of elements              : 1385
 Compression mode               : Lossless
 Stream size                    : 135 KiB (0%)
 Language                       : Chinese
 Default                        : No
 Forced                         : No
 Text #3
 ID                             : 5
 Format                         : UTF-8
 Codec ID                       : S_TEXT/UTF8
 Codec ID/Info                  : UTF-8 Plain Text
 Duration                       : 1 h 33 min
 Bit rate                       : 88 b/s
 Count of elements              : 1991
 Stream size                    : 60.1 KiB (0%)
 Title                          : SDH
 Language                       : English
 Default                        : No
 Forced                         : No

视频截图

下载地址

比得兔2:逃跑计划.简繁中文字幕.Peter.Rabbit.2.The.Runaway.2021.1080p.WEBRip.DDP5.1.Atmos.x264-纯净版 4.77GB:magnet:?xt=urn:btih:D8BAE30ABD8481CA0D0D9D47DA8F77C05810766E

比得兔2:逃跑计划.简繁中文字幕.Peter.Rabbit.2.The.Runaway.2021.2160p.WEB-DL.x265.10bit.HDR.DDP5.1.Atmos-纯净版 9.66GB:magnet:?xt=urn:btih:DB51C66CDD2BC37C73D6C2BA4A32F58DA5640108

比得兔.特效中英字幕.Peter.Rabbit.2018.BD1080P.X264.AAC.English&Mandarin&Cantonese&Taiwanese.CHS-ENG.Mp4Ba 5.23GB:magnet:?xt=urn:btih:E7366F6D71157446747920D10E5155FBDB5CAC09

留下评论

Secured By miniOrange