《南禅七日》庚子纪念版

%title插图%num

简介

《南禅七日》是当年南师怀瑾在厦门南普陀寺为僧人们打禅七的时候,记录下来的一个录像的名称。把这七天的内容全部收录了下来,方便更多的人可以受教。

这个《南禅七日》庚子纪念版 ,根据网上公开的多个版本《南禅七日》整合集成,并根据相关佛学杂志和当事人回忆,在左侧提要栏和新增的简体字幕中补充信息。其实,真正完整的《南禅七日》版本至今没见到。据了解,原始版本是原始录像带刻成光盘后流传的,称光盘版,共21集。《南禅七日(基金会版)》,将原版21集内容分割为42集,并作了少量补充和删节,新旧对比如下:
1)基金会版,估计在原版或录象带母带基础上制作的,增加了妙湛法师和南师的开场白,补充了多个没有视频的录音小片断。并对原始光盘或录象带文件进行了优化处理,分辨率仍受制于录像带的本来质量,但声音更丰满,画面更清晰了一些。
2)原版21集和基金会版48集内容一致,基版2集对应原版1集的内容。两种版本都缺少了第七天晚上的报告 ,即南师与出家人单独交流的音视频内容,至今未见公开;只有个别当事人零星而模糊的回忆。
3)基金会版本删除了原版第21集尾部内容,用新编”聚散“歌曲代替。
4)基金会版本第29、30集(不限于)中删除了部分行香过程。5)基金会版第18集前16分种,是对其第17集中张商英故事的完全重复。6)基金会版第38集尾部只有声音,删除了50 秒的图像,而原版完整。7)原版第10集中,第5、14分钟处,有严重的噪声和图像扭曲,而基金会版正常。《纪念版》参考多个版本的《南禅七日》文件进行择优整合,左侧增加内容提要,左侧上方增加当前状态栏,显示禅七的天数、讲次数,以及原版与基金会版的当前集数,供对比。右侧是分辩率为352288像素的原始光盘录像。底部增加最新整理的简体字幕,基金会版中补充的录音片断也转换成字幕显示。视频力求完整,符合史实,所辑内容包括了基金会42集《南禅七日》、21集光盘原版(VCD、DVD4碟装、6碟装、9碟装),以及称为清晰版、高清版的各种 Rm、flv、mp4的内容。在保证原始音画质量的前提下,分辩率扩展为640360像素的宽屏模式,仍然按原版的21集方式制作。

视频信息

General
 Complete name                  : D:\BaiduNetdiskDownload\《南禅七日》庚子纪念版V1.01 2021-03-05\《南禅七日》庚子纪念版(第1集).mp4
 Format                         : MPEG-4
 Format profile                 : Base Media
 Codec ID                       : isom (isom)
 File size                      : 508 MiB
 Duration                       : 1 h 53 min
 Overall bit rate mode          : Variable
 Overall bit rate               : 625 kb/s
 Encoded date                   : UTC 2021-03-04 18:02:55
 Tagged date                    : UTC 2021-03-04 18:02:55
 Video
 ID                             : 1
 Format                         : AVC
 Format/Info                    : Advanced Video Codec
 Format profile                 : High 10@L3
 Format settings                : CABAC / 4 Ref Frames
 Format settings, CABAC         : Yes
 Format settings, Reference fra : 4 frames
 Codec ID                       : avc1
 Codec ID/Info                  : Advanced Video Coding
 Duration                       : 1 h 53 min
 Bit rate                       : 237 kb/s
 Maximum bit rate               : 2 477 kb/s
 Width                          : 640 pixels
 Height                         : 360 pixels
 Display aspect ratio           : 16:9
 Frame rate mode                : Constant
 Frame rate                     : 25.000 FPS
 Color space                    : YUV
 Chroma subsampling             : 4:2:0
 Bit depth                      : 10 bits
 Scan type                      : Progressive
 Bits/(Pixel*Frame)             : 0.041
 Stream size                    : 193 MiB (38%)
 Writing library                : x264 core 148 r2721+46 0c4b09a xiaowan [10-bit@all X86_64]
 Encoding settings              : cabac=1 / ref=4 / deblock=1:1:1 / analyse=0x3:0x133 / me=umh / subme=10 / psy=1 / fade_compensate=0.00 / psy_rd=0.30:0.00 / mixed_ref=1 / me_range=24 / chroma_me=1 / trellis=2 / 8x8dct=1 / cqm=0 / deadzone=21,11 / fast_pskip=1 / chroma_qp_offset=-2 / threads=11 / lookahead_threads=1 / sliced_threads=0 / nr=0 / decimate=1 / interlaced=0 / bluray_compat=0 / constrained_intra=0 / fgo=0 / bframes=3 / b_pyramid=2 / b_adapt=2 / b_bias=0 / direct=3 / weightb=1 / open_gop=0 / weightp=2 / keyint=250 / keyint_min=1 / scenecut=60 / intra_refresh=0 / rc_lookahead=60 / rc=crf / mbtree=1 / crf=23.5000 / qcomp=0.50 / qpmin=0:0:0 / qpmax=81:81:81 / qpstep=4 / ip_ratio=1.40 / aq=2:0.80 / aq-sensitivity=10.00 / aq-factor=1.00:1.00:1.00 / aq2=0 / aq3=0
 Encoded date                   : UTC 2021-03-04 17:51:15
 Tagged date                    : UTC 2021-03-04 18:02:58
 Color range                    : Limited
 Matrix coefficients            : BT.470 System B/G
 Codec configuration box        : avcC
 Audio
 ID                             : 2
 Format                         : AAC LC
 Format/Info                    : Advanced Audio Codec Low Complexity
 Codec ID                       : mp4a-40-2
 Duration                       : 1 h 53 min
 Bit rate mode                  : Variable
 Bit rate                       : 384 kb/s
 Maximum bit rate               : 394 kb/s
 Channel(s)                     : 2 channels
 Channel layout                 : L R
 Sampling rate                  : 48.0 kHz
 Frame rate                     : 46.875 FPS (1024 SPF)
 Compression mode               : Lossy
 Stream size                    : 312 MiB (61%)
 Encoded date                   : UTC 2021-03-04 18:02:55
 Tagged date                    : UTC 2021-03-04 18:02:58

视频截图

下载地址

https://pan.baidu.com/s/1KvRjl844DjEuvTscetT54g密码:jzce

备用下载

https://cloud.189.cn/t/6vMZnmI3IjQr(访问码:nwy9)

留下评论

Secured By miniOrange