Tiny World:小小世界 两季全

%title插图%num

该纪录影集由保罗·路德[ 蚁人 ]担任解说,以令人叹为观止的摄影技术,带领观众深入大自然,探索各种小型生物坚韧的生命力,见证这些鲜为人知的小英雄背后的故事。

视频信息

General
 Unique ID                      : 72149390181336467895974401727368210492 (0x36477793FE554CCBFAD5526388CB283C)
 Complete name                  : E:\Tiny.World.S02E01.HDR.2160p.WEB.h265-KOGi.mkv
 Format                         : Matroska
 Format version                 : Version 4
 File size                      : 5.31 GiB
 Duration                       : 30 min 31 s
 Overall bit rate               : 24.9 Mb/s
 Writing application            : mkvmerge v55.0.0 ('Waiting For Space') 64-bit
 Writing library                : libebml v1.4.2 + libmatroska v1.6.4
 Video
 ID                             : 1
 Format                         : HEVC
 Format/Info                    : High Efficiency Video Coding
 Format profile                 : Main 10@L5@High
 HDR format                     : SMPTE ST 2086, HDR10 compatible
 Codec ID                       : V_MPEGH/ISO/HEVC
 Duration                       : 30 min 30 s
 Bit rate                       : 24.1 Mb/s
 Width                          : 3 840 pixels
 Height                         : 2 160 pixels
 Display aspect ratio           : 16:9
 Frame rate mode                : Constant
 Frame rate                     : 23.976 (24000/1001) FPS
 Color space                    : YUV
 Chroma subsampling             : 4:2:0 (Type 2)
 Bit depth                      : 10 bits
 Bits/(Pixel*Frame)             : 0.121
 Stream size                    : 5.15 GiB (97%)
 Language                       : English
 Default                        : Yes
 Forced                         : No
 Color range                    : Limited
 Color primaries                : BT.2020
 Transfer characteristics       : PQ
 Matrix coefficients            : BT.2020 non-constant
 Mastering display color primar : Display P3
 Mastering display luminance    : min: 0.0050 cd/m2, max: 1000 cd/m2
 Maximum Content Light Level    : 2391 cd/m2
 Maximum Frame-Average Light Le : 257 cd/m2
 Audio
 ID                             : 2
 Format                         : E-AC-3 JOC
 Format/Info                    : Enhanced AC-3 with Joint Object Coding
 Commercial name                : Dolby Digital Plus with Dolby Atmos
 Codec ID                       : A_EAC3
 Duration                       : 30 min 31 s
 Bit rate mode                  : Constant
 Bit rate                       : 768 kb/s
 Channel(s)                     : 6 channels
 Channel layout                 : L R C LFE Ls Rs
 Sampling rate                  : 48.0 kHz
 Frame rate                     : 31.250 FPS (1536 SPF)
 Compression mode               : Lossy
 Stream size                    : 168 MiB (3%)
 Language                       : English
 Service kind                   : Complete Main
 Default                        : Yes
 Forced                         : No
 Complexity index               : 16
 Number of dynamic objects      : 15
 Bed channel count              : 1 channel
 Bed channel configuration      : LFE
 Text #1
 ID                             : 3
 Format                         : UTF-8
 Codec ID                       : S_TEXT/UTF8
 Codec ID/Info                  : UTF-8 Plain Text
 Duration                       : 29 min 33 s
 Bit rate                       : 36 b/s
 Count of elements              : 204
 Stream size                    : 7.96 KiB (0%)
 Title                          : English
 Language                       : English
 Default                        : No
 Forced                         : No
 Text #2
 ID                             : 4
 Format                         : UTF-8
 Codec ID                       : S_TEXT/UTF8
 Codec ID/Info                  : UTF-8 Plain Text
 Duration                       : 29 min 33 s
 Bit rate                       : 38 b/s
 Count of elements              : 221
 Stream size                    : 8.23 KiB (0%)
 Title                          : English (SDH)
 Language                       : English
 Default                        : No
 Forced                         : No
 Text #3
 ID                             : 5
 Format                         : UTF-8
 Codec ID                       : S_TEXT/UTF8
 Codec ID/Info                  : UTF-8 Plain Text
 Duration                       : 30 min 19 s
 Bit rate                       : 55 b/s
 Count of elements              : 207
 Stream size                    : 12.2 KiB (0%)
 Title                          : العربية
 Language                       : Arabic
 Default                        : No
 Forced                         : No
 Text #4
 ID                             : 6
 Format                         : UTF-8
 Codec ID                       : S_TEXT/UTF8
 Codec ID/Info                  : UTF-8 Plain Text
 Duration                       : 30 min 19 s
 Bit rate                       : 64 b/s
 Count of elements              : 206
 Stream size                    : 14.4 KiB (0%)
 Title                          : български
 Language                       : Bulgarian
 Default                        : No
 Forced                         : No
 Text #5
 ID                             : 7
 Format                         : UTF-8
 Codec ID                       : S_TEXT/UTF8
 Codec ID/Info                  : UTF-8 Plain Text
 Duration                       : 30 min 19 s
 Bit rate                       : 39 b/s
 Count of elements              : 205
 Stream size                    : 8.69 KiB (0%)
 Title                          : Čeština
 Language                       : Czech
 Default                        : No
 Forced                         : No
 Text #6
 ID                             : 8
 Format                         : UTF-8
 Codec ID                       : S_TEXT/UTF8
 Codec ID/Info                  : UTF-8 Plain Text
 Duration                       : 30 min 19 s
 Bit rate                       : 38 b/s
 Count of elements              : 206
 Stream size                    : 8.63 KiB (0%)
 Title                          : dansk
 Language                       : Danish
 Default                        : No
 Forced                         : No
 Text #7
 ID                             : 9
 Format                         : UTF-8
 Codec ID                       : S_TEXT/UTF8
 Codec ID/Info                  : UTF-8 Plain Text
 Duration                       : 30 min 19 s
 Bit rate                       : 43 b/s
 Count of elements              : 215
 Stream size                    : 9.61 KiB (0%)
 Title                          : Deutsch
 Language                       : German
 Default                        : No
 Forced                         : No
 Text #8
 ID                             : 10
 Format                         : UTF-8
 Codec ID                       : S_TEXT/UTF8
 Codec ID/Info                  : UTF-8 Plain Text
 Duration                       : 30 min 19 s
 Bit rate                       : 72 b/s
 Count of elements              : 208
 Stream size                    : 16.2 KiB (0%)
 Title                          : Ελληνικά
 Language                       : Greek
 Default                        : No
 Forced                         : No
 Text #9
 ID                             : 11
 Format                         : UTF-8
 Codec ID                       : S_TEXT/UTF8
 Codec ID/Info                  : UTF-8 Plain Text
 Duration                       : 30 min 22 s
 Bit rate                       : 42 b/s
 Count of elements              : 220
 Stream size                    : 9.52 KiB (0%)
 Title                          : Español (España)
 Language                       : Spanish
 Default                        : No
 Forced                         : No
 Text #10
 ID                             : 12
 Format                         : UTF-8
 Codec ID                       : S_TEXT/UTF8
 Codec ID/Info                  : UTF-8 Plain Text
 Duration                       : 30 min 19 s
 Bit rate                       : 42 b/s
 Count of elements              : 219
 Stream size                    : 9.36 KiB (0%)
 Title                          : Español (Latinoamérica)
 Language                       : Spanish
 Default                        : No
 Forced                         : No
 Text #11
 ID                             : 13
 Format                         : UTF-8
 Codec ID                       : S_TEXT/UTF8
 Codec ID/Info                  : UTF-8 Plain Text
 Duration                       : 30 min 19 s
 Bit rate                       : 35 b/s
 Count of elements              : 204
 Stream size                    : 7.94 KiB (0%)
 Title                          : eesti
 Language                       : Estonian
 Default                        : No
 Forced                         : No
 Text #12
 ID                             : 14
 Format                         : UTF-8
 Codec ID                       : S_TEXT/UTF8
 Codec ID/Info                  : UTF-8 Plain Text
 Duration                       : 30 min 19 s
 Bit rate                       : 37 b/s
 Count of elements              : 206
 Stream size                    : 8.26 KiB (0%)
 Title                          : Suomi
 Language                       : Finnish
 Default                        : No
 Forced                         : No
 Text #13
 ID                             : 15
 Format                         : UTF-8
 Codec ID                       : S_TEXT/UTF8
 Codec ID/Info                  : UTF-8 Plain Text
 Duration                       : 30 min 16 s
 Bit rate                       : 42 b/s
 Count of elements              : 268
 Stream size                    : 9.33 KiB (0%)
 Title                          : Français (France)
 Language                       : French
 Default                        : No
 Forced                         : No
 Text #14
 ID                             : 16
 Format                         : UTF-8
 Codec ID                       : S_TEXT/UTF8
 Codec ID/Info                  : UTF-8 Plain Text
 Duration                       : 30 min 16 s
 Bit rate                       : 42 b/s
 Count of elements              : 269
 Stream size                    : 9.34 KiB (0%)
 Title                          : Français (Canada)
 Language                       : French
 Default                        : No
 Forced                         : No
 Text #15
 ID                             : 17
 Format                         : UTF-8
 Codec ID                       : S_TEXT/UTF8
 Codec ID/Info                  : UTF-8 Plain Text
 Duration                       : 30 min 19 s
 Bit rate                       : 52 b/s
 Count of elements              : 207
 Stream size                    : 11.8 KiB (0%)
 Title                          : עברית
 Language                       : Hebrew
 Default                        : No
 Forced                         : No
 Text #16
 ID                             : 18
 Format                         : UTF-8
 Codec ID                       : S_TEXT/UTF8
 Codec ID/Info                  : UTF-8 Plain Text
 Duration                       : 30 min 19 s
 Bit rate                       : 100 b/s
 Count of elements              : 208
 Stream size                    : 22.2 KiB (0%)
 Title                          : हिन्दी
 Language                       : Hindi
 Default                        : No
 Forced                         : No
 Text #17
 ID                             : 19
 Format                         : UTF-8
 Codec ID                       : S_TEXT/UTF8
 Codec ID/Info                  : UTF-8 Plain Text
 Duration                       : 30 min 19 s
 Bit rate                       : 39 b/s
 Count of elements              : 207
 Stream size                    : 8.72 KiB (0%)
 Title                          : magyar
 Language                       : Hungarian
 Default                        : No
 Forced                         : No
 Text #18
 ID                             : 20
 Format                         : UTF-8
 Codec ID                       : S_TEXT/UTF8
 Codec ID/Info                  : UTF-8 Plain Text
 Duration                       : 30 min 19 s
 Bit rate                       : 39 b/s
 Count of elements              : 207
 Stream size                    : 8.85 KiB (0%)
 Title                          : Bahasa Indonesia
 Language                       : Indonesian
 Default                        : No
 Forced                         : No
 Text #19
 ID                             : 21
 Format                         : UTF-8
 Codec ID                       : S_TEXT/UTF8
 Codec ID/Info                  : UTF-8 Plain Text
 Duration                       : 30 min 21 s
 Bit rate                       : 41 b/s
 Count of elements              : 208
 Stream size                    : 9.14 KiB (0%)
 Title                          : Italiano
 Language                       : Italian
 Default                        : No
 Forced                         : No
 Text #20
 ID                             : 22
 Format                         : UTF-8
 Codec ID                       : S_TEXT/UTF8
 Codec ID/Info                  : UTF-8 Plain Text
 Duration                       : 30 min 22 s
 Bit rate                       : 38 b/s
 Count of elements              : 197
 Stream size                    : 8.46 KiB (0%)
 Title                          : 日本語
 Language                       : Japanese
 Default                        : No
 Forced                         : No
 Text #21
 ID                             : 23
 Format                         : UTF-8
 Codec ID                       : S_TEXT/UTF8
 Codec ID/Info                  : UTF-8 Plain Text
 Duration                       : 30 min 19 s
 Bit rate                       : 44 b/s
 Count of elements              : 208
 Stream size                    : 9.86 KiB (0%)
 Title                          : 한국어
 Language                       : Korean
 Default                        : No
 Forced                         : No
 Text #22
 ID                             : 24
 Format                         : UTF-8
 Codec ID                       : S_TEXT/UTF8
 Codec ID/Info                  : UTF-8 Plain Text
 Duration                       : 30 min 19 s
 Bit rate                       : 37 b/s
 Count of elements              : 207
 Stream size                    : 8.36 KiB (0%)
 Title                          : lietuvių
 Language                       : Lithuanian
 Default                        : No
 Forced                         : No
 Text #23
 ID                             : 25
 Format                         : UTF-8
 Codec ID                       : S_TEXT/UTF8
 Codec ID/Info                  : UTF-8 Plain Text
 Duration                       : 30 min 19 s
 Bit rate                       : 37 b/s
 Count of elements              : 206
 Stream size                    : 8.35 KiB (0%)
 Title                          : latviešu
 Language                       : Latvian
 Default                        : No
 Forced                         : No
 Text #24
 ID                             : 26
 Format                         : UTF-8
 Codec ID                       : S_TEXT/UTF8
 Codec ID/Info                  : UTF-8 Plain Text
 Duration                       : 30 min 19 s
 Bit rate                       : 39 b/s
 Count of elements              : 207
 Stream size                    : 8.80 KiB (0%)
 Title                          : Bahasa Melayu
 Language                       : Malay
 Default                        : No
 Forced                         : No
 Text #25
 ID                             : 27
 Format                         : UTF-8
 Codec ID                       : S_TEXT/UTF8
 Codec ID/Info                  : UTF-8 Plain Text
 Duration                       : 30 min 19 s
 Bit rate                       : 36 b/s
 Count of elements              : 195
 Stream size                    : 8.14 KiB (0%)
 Title                          : Nederlands
 Language                       : Dutch
 Default                        : No
 Forced                         : No
 Text #26
 ID                             : 28
 Format                         : UTF-8
 Codec ID                       : S_TEXT/UTF8
 Codec ID/Info                  : UTF-8 Plain Text
 Duration                       : 30 min 19 s
 Bit rate                       : 37 b/s
 Count of elements              : 197
 Stream size                    : 8.38 KiB (0%)
 Title                          : norsk
 Language                       : Norwegian
 Default                        : No
 Forced                         : No
 Text #27
 ID                             : 29
 Format                         : UTF-8
 Codec ID                       : S_TEXT/UTF8
 Codec ID/Info                  : UTF-8 Plain Text
 Duration                       : 30 min 19 s
 Bit rate                       : 38 b/s
 Count of elements              : 208
 Stream size                    : 8.48 KiB (0%)
 Title                          : polski
 Language                       : Polish
 Default                        : No
 Forced                         : No
 Text #28
 ID                             : 30
 Format                         : UTF-8
 Codec ID                       : S_TEXT/UTF8
 Codec ID/Info                  : UTF-8 Plain Text
 Duration                       : 30 min 19 s
 Bit rate                       : 41 b/s
 Count of elements              : 208
 Stream size                    : 9.26 KiB (0%)
 Title                          : Português
 Language                       : Portuguese
 Default                        : No
 Forced                         : No
 Text #29
 ID                             : 31
 Format                         : UTF-8
 Codec ID                       : S_TEXT/UTF8
 Codec ID/Info                  : UTF-8 Plain Text
 Duration                       : 30 min 19 s
 Bit rate                       : 36 b/s
 Count of elements              : 208
 Stream size                    : 8.13 KiB (0%)
 Title                          : Português (Brasil)
 Language                       : Portuguese
 Default                        : No
 Forced                         : No
 Text #30
 ID                             : 32
 Format                         : UTF-8
 Codec ID                       : S_TEXT/UTF8
 Codec ID/Info                  : UTF-8 Plain Text
 Duration                       : 30 min 19 s
 Bit rate                       : 64 b/s
 Count of elements              : 208
 Stream size                    : 14.3 KiB (0%)
 Title                          : Русский
 Language                       : Russian
 Default                        : No
 Forced                         : No
 Text #31
 ID                             : 33
 Format                         : UTF-8
 Codec ID                       : S_TEXT/UTF8
 Codec ID/Info                  : UTF-8 Plain Text
 Duration                       : 30 min 19 s
 Bit rate                       : 37 b/s
 Count of elements              : 208
 Stream size                    : 8.31 KiB (0%)
 Title                          : Slovenčina
 Language                       : Slovak
 Default                        : No
 Forced                         : No
 Text #32
 ID                             : 34
 Format                         : UTF-8
 Codec ID                       : S_TEXT/UTF8
 Codec ID/Info                  : UTF-8 Plain Text
 Duration                       : 30 min 19 s
 Bit rate                       : 34 b/s
 Count of elements              : 207
 Stream size                    : 7.58 KiB (0%)
 Title                          : slovenščina
 Language                       : Slovenian
 Default                        : No
 Forced                         : No
 Text #33
 ID                             : 35
 Format                         : UTF-8
 Codec ID                       : S_TEXT/UTF8
 Codec ID/Info                  : UTF-8 Plain Text
 Duration                       : 30 min 19 s
 Bit rate                       : 38 b/s
 Count of elements              : 207
 Stream size                    : 8.54 KiB (0%)
 Title                          : Svenska
 Language                       : Swedish
 Default                        : No
 Forced                         : No
 Text #34
 ID                             : 36
 Format                         : UTF-8
 Codec ID                       : S_TEXT/UTF8
 Codec ID/Info                  : UTF-8 Plain Text
 Duration                       : 30 min 19 s
 Bit rate                       : 116 b/s
 Count of elements              : 207
 Stream size                    : 26.0 KiB (0%)
 Title                          : தமிழ்
 Language                       : Tamil
 Default                        : No
 Forced                         : No
 Text #35
 ID                             : 37
 Format                         : UTF-8
 Codec ID                       : S_TEXT/UTF8
 Codec ID/Info                  : UTF-8 Plain Text
 Duration                       : 30 min 19 s
 Bit rate                       : 105 b/s
 Count of elements              : 207
 Stream size                    : 23.5 KiB (0%)
 Title                          : తెలుగు
 Language                       : Telugu
 Default                        : No
 Forced                         : No
 Text #36
 ID                             : 38
 Format                         : UTF-8
 Codec ID                       : S_TEXT/UTF8
 Codec ID/Info                  : UTF-8 Plain Text
 Duration                       : 30 min 19 s
 Bit rate                       : 103 b/s
 Count of elements              : 207
 Stream size                    : 23.1 KiB (0%)
 Title                          : ไทย
 Language                       : Thai
 Default                        : No
 Forced                         : No
 Text #37
 ID                             : 39
 Format                         : UTF-8
 Codec ID                       : S_TEXT/UTF8
 Codec ID/Info                  : UTF-8 Plain Text
 Duration                       : 30 min 19 s
 Bit rate                       : 39 b/s
 Count of elements              : 207
 Stream size                    : 8.70 KiB (0%)
 Title                          : Türkçe
 Language                       : Turkish
 Default                        : No
 Forced                         : No
 Text #38
 ID                             : 40
 Format                         : UTF-8
 Codec ID                       : S_TEXT/UTF8
 Codec ID/Info                  : UTF-8 Plain Text
 Duration                       : 30 min 19 s
 Bit rate                       : 62 b/s
 Count of elements              : 208
 Stream size                    : 13.9 KiB (0%)
 Title                          : українська
 Language                       : Ukrainian
 Default                        : No
 Forced                         : No
 Text #39
 ID                             : 41
 Format                         : UTF-8
 Codec ID                       : S_TEXT/UTF8
 Codec ID/Info                  : UTF-8 Plain Text
 Duration                       : 30 min 19 s
 Bit rate                       : 48 b/s
 Count of elements              : 208
 Stream size                    : 10.7 KiB (0%)
 Title                          : Tiếng Việt
 Language                       : Vietnamese
 Default                        : No
 Forced                         : No
 Text #40
 ID                             : 42
 Format                         : UTF-8
 Codec ID                       : S_TEXT/UTF8
 Codec ID/Info                  : UTF-8 Plain Text
 Duration                       : 30 min 19 s
 Bit rate                       : 32 b/s
 Count of elements              : 208
 Stream size                    : 7.12 KiB (0%)
 Title                          : 廣東話
 Language                       : Chinese
 Default                        : No
 Forced                         : No
 Text #41
 ID                             : 43
 Format                         : UTF-8
 Codec ID                       : S_TEXT/UTF8
 Codec ID/Info                  : UTF-8 Plain Text
 Duration                       : 30 min 19 s
 Bit rate                       : 31 b/s
 Count of elements              : 208
 Stream size                    : 7.05 KiB (0%)
 Title                          : 中文(繁體)
 Language                       : Chinese
 Default                        : No
 Forced                         : No
 Text #42
 ID                             : 44
 Format                         : UTF-8
 Codec ID                       : S_TEXT/UTF8
 Codec ID/Info                  : UTF-8 Plain Text
 Duration                       : 30 min 19 s
 Bit rate                       : 33 b/s
 Count of elements              : 207
 Stream size                    : 7.34 KiB (0%)
 Title                          : 中文(简体)
 Language                       : Chinese
 Default                        : No
 Forced                         : No

截图

下载地址

第一季

1080P:magnet:?xt=urn:btih:2baf77d1356b2f215610fb0922654e3da5a28e5b&dn=Tiny.World.S01.1080p.ATVP.WEB.DDP5.1.Atmos.x264-NTb%5Brartv%5D&tr=http%3A%2F%2Ftracker.trackerfix.com%3A80%2Fannounce&tr=udp%3A%2F%2F9.rarbg.me%3A2800&tr=udp%3A%2F%2F9.rarbg.to%3A2760

2160P:magnet:?xt=urn:btih:4866a1e2335e54cb51cbeafee29e62536256b260

第二季

1080P:magnet:?xt=urn:btih:2b5b2862c4c05e70575ef7b6c53073f1bad93ee5&dn=Tiny.World.S02.1080p.ATVP.WEB-DL.DDP5.1.Atmos.x264-KOGi%5Brartv%5D&tr=http%3A%2F%2Ftracker.trackerfix.com%3A80%2Fannounce&tr=udp%3A%2F%2F9.rarbg.me%3A2730&tr=udp%3A%2F%2F9.rarbg.to%3A2820&tr=udp%3A%2F%2Ftracker.tallpenguin.org%3A15750&tr=udp%3A%2F%2Ftracker.thinelephant.org%3A12740

2160P:magnet:?xt=urn:btih:63400903d387a6b9da14e91b6cd9ca2881eaf693

在线观看

第一季:https://www.bilibili.com/video/BV1rv411k79t?

第二季:https://www.bilibili.com/video/BV1ko4y1f7Wq?t=198

留下评论

Secured By miniOrange