Netflix科幻动画《爱,死亡和机器人/Love, Death & Robots》全两季

%title插图%num

《爱、死亡 & 机器人》是一部动画短片合集,涵盖科幻、奇幻、恐怖和喜剧等题材。每集都采用大胆的叙事手法,故事好看易懂,令人印象深刻。

该剧集是第一部动画短片,由大卫·芬奇、蒂姆·米勒、珍妮弗·米勒和乔希·多宁担任监制,汇集了世界级的动画创作者和精彩的故事,定会为观众带来独特、震撼人心的观看体验。

第一季

分集点评

《桑尼的优势》

游戏质感强烈的短片,看着有点阿丽塔的感觉

短短十几分钟剧情还有反转,短片有漏点,开局玩的就挺嗨!

《三个机器人》

世界末日,人类灭绝,世界的某一角落只剩下三个机器人

行进之中三个机器人遇上了一只猫,面对强势的猫主子,机器人也招架不住

萌即是正义的短片,主题思想环保!

《证人》

前段时间好评如潮的动画电影《蜘蛛侠:平行宇宙》 前艺术总监 Alberto Mielgo制作

短片的质感很不错,漫画效果挺多,漏点尺度略大

短片的一段表演有点BDSM胶衣调教的感觉

剧情也是类似《恐怖游轮》的循环剧情!

《机动装甲》

动画片感觉很强烈,短片讲述故事有点类似塔防游戏

看到最后感觉设定又有一些《星河战队》的影子

《吸魂者》

考古者无意发现了远古怪兽噬魂者,传说噬魂者是吸血鬼之王

强大到可以摧毁一个军队,但是如此强大的怪物,最怕的动物居然是猫星人

这让人不禁想起了最近的《惊奇队长》里的噬元兽

《当酸奶统治世界》

科学家的一次实验,让酸奶具有了意识

具有了意识的酸奶逐渐以其强大的意识统治了世界

当酸奶统治世界,人类的生活倒是越来越好!

《裂缝以外》

太空中执行任务的飞船遭遇系统错误,来到了一个未知的领域

当飞船的人醒来,逐渐发现这次系统错误背后的秘密会是什么样的状态

短片虽短,但是尺度一点不小,X爱场面异常火爆,玩法很溜

男主十分像金刚狼!

剧情设定也有点《盗梦空间》的感觉,事故到底是一场梦还是神马谁又知道?

《祝有好收获》

这是一个中国传统的聊斋故事+机械姬的故事,一个抓妖人的儿子和狐狸精做朋友

进入现代社会,建国后的动物无法成精,狐狸精和男孩分开却又在城市相遇!

几经转折,当初的狐狸精被人改造,为了报复,寻求正义,男孩继续改造狐狸精

改造后的小狐狸终于找回当年的感觉,开启正义之路,有动画咪咪出场!

《垃圾场》

垃圾场老板的一个诡异故事,一只垃圾狗!

《变形者》

未来战场上的动物士兵,一场关于复仇的故事,犬兵对战狼人,大战一触即发!

看着非常刺激,变形效果很不错!

《帮手》

一个宇航员在太空执行任务被太空垃圾击中,生死关头,断臂自救

终于活下来以后,想到了帮手的重要性!

《古鱼复苏》

西部荒原上汽车抛锚,从一老一少的谈论中知道

原来荒原以前是一片大海,夜深了,曾经海中的古鱼复苏

年轻的男人沉迷其中,却不知已经成为古鱼的目标…

很梦幻的短片!

《幸运十三》

一个女飞行员和她的飞船的故事

本来是一架厄运飞船,却在女飞行员手中变成了幸运飞船

任务战斗场面不错!

《齐马的作品》

非常哲学的一部动画,大道至简,蓝色背后的秘密居然如此纯粹!

《盲点》

有点动画版《疯狂的麦克斯》的感觉,机械战斗场面很经典

《冰河时代》

一个冰箱里的文明演变过程,从文明起源到文明毁灭

这个故事告诉我们,不要的冰箱千万别急着丢,看看里面是否有新的文明诞生

《不一样的历史》

有点《罗拉快跑》感觉的动画,不同选择导致不同历史结局,究竟哪一个才是好的呢?

《秘密战争》

毛子部队大战怪兽,故事很老套,画面游戏质感强烈,总体还可以!

视频信息
General
 Unique ID                      : 136657811203476833633419226469178889827 (0x66CF564A6C87F9B0E7632BB908BD5663)
 Complete name                  : F:\Love.Death.and.Robots.S01.1080p.NF.WEBRip.DDP5.1.x264-NTG[rartv]\Love.Death.and.Robots.S01E01.Sonnies.Edge.1080p.NF.WEB-DL.DDP5.1.x264-NTG.mkv
 Format                         : Matroska
 Format version                 : Version 4
 File size                      : 882 MiB
 Duration                       : 17 min 14 s
 Overall bit rate mode          : Variable
 Overall bit rate               : 7 150 kb/s
 Encoded date                   : UTC 2019-03-15 07:02:48
 Writing application            : mkvmerge v21.0.0 ('Tardigrades Will Inherit The Earth') 64-bit
 Writing library                : libebml v1.3.5 + libmatroska v1.4.8
 Video
 ID                             : 1
 Format                         : AVC
 Format/Info                    : Advanced Video Codec
 Format profile                 : Main@L4
 Format settings                : CABAC / 3 Ref Frames
 Format settings, CABAC         : Yes
 Format settings, Reference fra : 3 frames
 Codec ID                       : V_MPEG4/ISO/AVC
 Duration                       : 17 min 14 s
 Bit rate mode                  : Variable
 Bit rate                       : 6 698 kb/s
 Nominal bit rate               : 7 150 kb/s
 Maximum bit rate               : 10.7 Mb/s
 Width                          : 1 920 pixels
 Height                         : 1 080 pixels
 Display aspect ratio           : 16:9
 Frame rate mode                : Constant
 Frame rate                     : 24.000 FPS
 Color space                    : YUV
 Chroma subsampling             : 4:2:0
 Bit depth                      : 8 bits
 Scan type                      : Progressive
 Bits/(Pixel*Frame)             : 0.135
 Stream size                    : 826 MiB (94%)
 Writing library                : x264 core 148 r2715 7e75228
 Encoding settings              : cabac=1 / ref=3 / deblock=1:0:0 / analyse=0x1:0x111 / me=umh / subme=10 / psy=1 / psy_rd=1.00:0.00 / mixed_ref=1 / me_range=24 / chroma_me=1 / trellis=2 / 8x8dct=0 / cqm=0 / deadzone=21,11 / fast_pskip=1 / chroma_qp_offset=-2 / threads=8 / lookahead_threads=1 / sliced_threads=0 / nr=0 / decimate=1 / interlaced=0 / bluray_compat=0 / stitchable=1 / constrained_intra=0 / bframes=2 / b_pyramid=0 / b_adapt=2 / b_bias=0 / direct=3 / weightb=1 / open_gop=0 / weightp=2 / keyint=48 / keyint_min=25 / scenecut=0 / intra_refresh=0 / rc_lookahead=48 / rc=2pass / mbtree=1 / bitrate=7150 / ratetol=1.0 / qcomp=0.50 / qpmin=6 / qpmax=51 / qpstep=4 / cplxblur=20.0 / qblur=0.5 / vbv_maxrate=10725 / vbv_bufsize=14300 / nal_hrd=vbr / filler=0 / ip_ratio=1.40 / aq=1:1.00
 Default                        : Yes
 Forced                         : No
 Audio
 ID                             : 2
 Format                         : E-AC-3 JOC
 Format/Info                    : Enhanced AC-3 with Joint Object Coding
 Commercial name                : Dolby Digital Plus with Dolby Atmos
 Codec ID                       : A_EAC3
 Duration                       : 17 min 14 s
 Bit rate mode                  : Constant
 Bit rate                       : 448 kb/s
 Channel(s)                     : 6 channels
 Channel layout                 : L R C LFE Ls Rs
 Sampling rate                  : 48.0 kHz
 Frame rate                     : 31.250 FPS (1536 SPF)
 Compression mode               : Lossy
 Stream size                    : 55.2 MiB (6%)
 Title                          : English
 Language                       : English
 Service kind                   : Complete Main
 Default                        : Yes
 Forced                         : No
 Complexity index               : 16
 Number of dynamic objects      : 15
 Bed channel count              : 1 channel
 Bed channel configuration      : LFE
 Text #1
 ID                             : 3
 Format                         : UTF-8
 Codec ID                       : S_TEXT/UTF8
 Codec ID/Info                  : UTF-8 Plain Text
 Duration                       : 14 min 1 s
 Bit rate                       : 41 b/s
 Count of elements              : 165
 Stream size                    : 4.29 KiB (0%)
 Language                       : English
 Default                        : No
 Forced                         : No
 Text #2
 ID                             : 4
 Format                         : UTF-8
 Codec ID                       : S_TEXT/UTF8
 Codec ID/Info                  : UTF-8 Plain Text
 Duration                       : 14 min 52 s
 Bit rate                       : 50 b/s
 Count of elements              : 206
 Stream size                    : 5.52 KiB (0%)
 Title                          : SDH
 Language                       : English
 Default                        : No
 Forced                         : No
 Text #3
 ID                             : 5
 Format                         : UTF-8
 Codec ID                       : S_TEXT/UTF8
 Codec ID/Info                  : UTF-8 Plain Text
 Duration                       : 15 min 18 s
 Bit rate                       : 63 b/s
 Count of elements              : 159
 Stream size                    : 7.13 KiB (0%)
 Language                       : Arabic
 Default                        : No
 Forced                         : No
 Text #4
 ID                             : 6
 Format                         : UTF-8
 Codec ID                       : S_TEXT/UTF8
 Codec ID/Info                  : UTF-8 Plain Text
 Duration                       : 15 min 24 s
 Bit rate                       : 39 b/s
 Count of elements              : 160
 Stream size                    : 4.46 KiB (0%)
 Language                       : Danish
 Default                        : No
 Forced                         : No
 Text #5
 ID                             : 7
 Format                         : UTF-8
 Codec ID                       : S_TEXT/UTF8
 Codec ID/Info                  : UTF-8 Plain Text
 Duration                       : 15 min 24 s
 Bit rate                       : 38 b/s
 Count of elements              : 163
 Stream size                    : 4.35 KiB (0%)
 Language                       : German
 Default                        : No
 Forced                         : No
 Text #6
 ID                             : 8
 Format                         : UTF-8
 Codec ID                       : S_TEXT/UTF8
 Codec ID/Info                  : UTF-8 Plain Text
 Duration                       : 15 min 18 s
 Bit rate                       : 68 b/s
 Count of elements              : 158
 Stream size                    : 7.64 KiB (0%)
 Language                       : Greek
 Default                        : No
 Forced                         : No
 Text #7
 ID                             : 9
 Format                         : UTF-8
 Codec ID                       : S_TEXT/UTF8
 Codec ID/Info                  : UTF-8 Plain Text
 Duration                       : 15 min 24 s
 Bit rate                       : 37 b/s
 Count of elements              : 162
 Stream size                    : 4.27 KiB (0%)
 Language                       : Spanish
 Default                        : No
 Forced                         : No
 Text #8
 ID                             : 10
 Format                         : UTF-8
 Codec ID                       : S_TEXT/UTF8
 Codec ID/Info                  : UTF-8 Plain Text
 Duration                       : 15 min 24 s
 Bit rate                       : 37 b/s
 Count of elements              : 175
 Stream size                    : 4.24 KiB (0%)
 Title                          : European
 Language                       : Spanish
 Default                        : No
 Forced                         : No
 Text #9
 ID                             : 11
 Format                         : UTF-8
 Codec ID                       : S_TEXT/UTF8
 Codec ID/Info                  : UTF-8 Plain Text
 Duration                       : 15 min 24 s
 Bit rate                       : 37 b/s
 Count of elements              : 156
 Stream size                    : 4.23 KiB (0%)
 Language                       : Finnish
 Default                        : No
 Forced                         : No
 Text #10
 ID                             : 12
 Format                         : UTF-8
 Codec ID                       : S_TEXT/UTF8
 Codec ID/Info                  : UTF-8 Plain Text
 Duration                       : 15 min 24 s
 Bit rate                       : 41 b/s
 Count of elements              : 158
 Stream size                    : 4.72 KiB (0%)
 Language                       : French
 Default                        : No
 Forced                         : No
 Text #11
 ID                             : 13
 Format                         : UTF-8
 Codec ID                       : S_TEXT/UTF8
 Codec ID/Info                  : UTF-8 Plain Text
 Duration                       : 15 min 24 s
 Bit rate                       : 60 b/s
 Count of elements              : 159
 Stream size                    : 6.87 KiB (0%)
 Language                       : Hebrew
 Default                        : No
 Forced                         : No
 Text #12
 ID                             : 14
 Format                         : UTF-8
 Codec ID                       : S_TEXT/UTF8
 Codec ID/Info                  : UTF-8 Plain Text
 Duration                       : 15 min 24 s
 Bit rate                       : 37 b/s
 Count of elements              : 158
 Stream size                    : 4.19 KiB (0%)
 Language                       : Hungarian
 Default                        : No
 Forced                         : No
 Text #13
 ID                             : 15
 Format                         : UTF-8
 Codec ID                       : S_TEXT/UTF8
 Codec ID/Info                  : UTF-8 Plain Text
 Duration                       : 15 min 24 s
 Bit rate                       : 37 b/s
 Count of elements              : 160
 Stream size                    : 4.22 KiB (0%)
 Language                       : Indonesian
 Default                        : No
 Forced                         : No
 Text #14
 ID                             : 16
 Format                         : UTF-8
 Codec ID                       : S_TEXT/UTF8
 Codec ID/Info                  : UTF-8 Plain Text
 Duration                       : 15 min 24 s
 Bit rate                       : 39 b/s
 Count of elements              : 158
 Stream size                    : 4.48 KiB (0%)
 Language                       : Italian
 Default                        : No
 Forced                         : No
 Text #15
 ID                             : 17
 Format                         : UTF-8
 Codec ID                       : S_TEXT/UTF8
 Codec ID/Info                  : UTF-8 Plain Text
 Duration                       : 15 min 25 s
 Bit rate                       : 37 b/s
 Count of elements              : 171
 Stream size                    : 4.27 KiB (0%)
 Language                       : Japanese
 Default                        : No
 Forced                         : No
 Text #16
 ID                             : 18
 Format                         : UTF-8
 Codec ID                       : S_TEXT/UTF8
 Codec ID/Info                  : UTF-8 Plain Text
 Duration                       : 15 min 24 s
 Bit rate                       : 47 b/s
 Count of elements              : 160
 Stream size                    : 5.31 KiB (0%)
 Language                       : Korean
 Default                        : No
 Forced                         : No
 Text #17
 ID                             : 19
 Format                         : UTF-8
 Codec ID                       : S_TEXT/UTF8
 Codec ID/Info                  : UTF-8 Plain Text
 Duration                       : 15 min 24 s
 Bit rate                       : 33 b/s
 Count of elements              : 157
 Stream size                    : 3.74 KiB (0%)
 Language                       : Norwegian Bokmal
 Default                        : No
 Forced                         : No
 Text #18
 ID                             : 20
 Format                         : UTF-8
 Codec ID                       : S_TEXT/UTF8
 Codec ID/Info                  : UTF-8 Plain Text
 Duration                       : 15 min 24 s
 Bit rate                       : 34 b/s
 Count of elements              : 153
 Stream size                    : 3.91 KiB (0%)
 Language                       : Dutch
 Default                        : No
 Forced                         : No
 Text #19
 ID                             : 21
 Format                         : UTF-8
 Codec ID                       : S_TEXT/UTF8
 Codec ID/Info                  : UTF-8 Plain Text
 Duration                       : 15 min 24 s
 Bit rate                       : 37 b/s
 Count of elements              : 156
 Stream size                    : 4.21 KiB (0%)
 Language                       : Polish
 Default                        : No
 Forced                         : No
 Text #20
 ID                             : 22
 Format                         : UTF-8
 Codec ID                       : S_TEXT/UTF8
 Codec ID/Info                  : UTF-8 Plain Text
 Duration                       : 15 min 24 s
 Bit rate                       : 37 b/s
 Count of elements              : 157
 Stream size                    : 4.28 KiB (0%)
 Language                       : Portuguese
 Default                        : No
 Forced                         : No
 Text #21
 ID                             : 23
 Format                         : UTF-8
 Codec ID                       : S_TEXT/UTF8
 Codec ID/Info                  : UTF-8 Plain Text
 Duration                       : 15 min 24 s
 Bit rate                       : 39 b/s
 Count of elements              : 162
 Stream size                    : 4.45 KiB (0%)
 Title                          : Brazilian
 Language                       : Portuguese
 Default                        : No
 Forced                         : No
 Text #22
 ID                             : 24
 Format                         : UTF-8
 Codec ID                       : S_TEXT/UTF8
 Codec ID/Info                  : UTF-8 Plain Text
 Duration                       : 15 min 24 s
 Bit rate                       : 42 b/s
 Count of elements              : 158
 Stream size                    : 4.75 KiB (0%)
 Language                       : Romanian
 Default                        : No
 Forced                         : No
 Text #23
 ID                             : 25
 Format                         : UTF-8
 Codec ID                       : S_TEXT/UTF8
 Codec ID/Info                  : UTF-8 Plain Text
 Duration                       : 15 min 24 s
 Bit rate                       : 67 b/s
 Count of elements              : 159
 Stream size                    : 7.64 KiB (0%)
 Language                       : Russian
 Default                        : No
 Forced                         : No
 Text #24
 ID                             : 26
 Format                         : UTF-8
 Codec ID                       : S_TEXT/UTF8
 Codec ID/Info                  : UTF-8 Plain Text
 Duration                       : 15 min 24 s
 Bit rate                       : 36 b/s
 Count of elements              : 146
 Stream size                    : 4.08 KiB (0%)
 Language                       : Swedish
 Default                        : No
 Forced                         : No
 Text #25
 ID                             : 27
 Format                         : UTF-8
 Codec ID                       : S_TEXT/UTF8
 Codec ID/Info                  : UTF-8 Plain Text
 Duration                       : 15 min 24 s
 Bit rate                       : 97 b/s
 Count of elements              : 160
 Stream size                    : 11.0 KiB (0%)
 Language                       : Thai
 Default                        : No
 Forced                         : No
 Text #26
 ID                             : 28
 Format                         : UTF-8
 Codec ID                       : S_TEXT/UTF8
 Codec ID/Info                  : UTF-8 Plain Text
 Duration                       : 15 min 24 s
 Bit rate                       : 38 b/s
 Count of elements              : 155
 Stream size                    : 4.37 KiB (0%)
 Language                       : Turkish
 Default                        : No
 Forced                         : No
 Text #27
 ID                             : 29
 Format                         : UTF-8
 Codec ID                       : S_TEXT/UTF8
 Codec ID/Info                  : UTF-8 Plain Text
 Duration                       : 15 min 24 s
 Bit rate                       : 42 b/s
 Count of elements              : 160
 Stream size                    : 4.77 KiB (0%)
 Title                          : Simplified
 Language                       : Chinese
 Default                        : No
 Forced                         : No
 Text #28
 ID                             : 30
 Format                         : UTF-8
 Codec ID                       : S_TEXT/UTF8
 Codec ID/Info                  : UTF-8 Plain Text
 Duration                       : 15 min 24 s
 Bit rate                       : 39 b/s
 Count of elements              : 159
 Stream size                    : 4.45 KiB (0%)
 Title                          : Traditional
 Language                       : Chinese
 Default                        : No
 Forced                         : No
视频截图
下载地址

Love.Death.and.Robots.S01.1080p.NF.WEBRip.DDP5.1.x264-NTG[rartv]:magnet:?xt=urn:btih:1AA1F41FAB6BCD012C14D81810561155E27B4EA4

第二季

分集点评

人工智能服务(自动化客户服务“AUTOMATED CUSTOMER SERVICE”)

讲述的就是未来世界,人们享受着机器人带来的人工智能自动化服务

但是这样的主题下往往伴随着机器的觉醒

短片简单探讨了当人类和机器人成为对立,结果会怎么样?

作为开篇之作,整体表现还好!

冰世界(冰“ICE”)

原著作者里奇·拉尔森。制作班底是第一季《齐马的作品》的原班人马。

故事讲述了未来人类因为某种原因来到了一个寒冷的冰世界里

为了适应这个世界,人类自觉的改造了自己的身体!

未改造的哥哥和改造人弟弟去观看冰球上的冰鲸奇观,结果发生意外

结尾反思较多,大家可以评论区讨论

突击小队(Pop Squad)

改编自曾写出《发条女孩》的作家保罗·巴奇加卢皮的一篇中短篇小说《灭杀小组》,或翻译成《人口特勤队》。

故事讲述未来社会由于有了长生不老药,人类被禁止生育。

但依然有人非法生育,于是有了专门抓捕非法生育的灭杀小组

主人公就是小组成员,他奉命逮捕那些生了孩子的人,但是在某次任务以后!

他对自己产生了怀疑…

沙漠中的斯诺(Snow in the Desert)

废土世界,一个拥有复原和永生能力的男人成为了赏金猎人的目标

在逃亡的过程中,男人认识了一个女人,男人和女人回到男人的家

猎人也追杀了过来,生死时刻,女人救了男人,男人也知道了女人的秘密

两个人原来是同类人,一起消灭孤独!

高草丛(THE TALL GRASS)

原著作者乔·R·兰斯代尔,第一季第十二集《古鱼复苏》也是改编自他的同名作品。

列车在行驶过程中突然停下来,好奇的乘客下车却被列车员拦住

当乘客看到铁道旁高草内闪闪发光,好奇心趋势下前去观看,结果却看到了怪物

惊慌失措的乘客在奔跑中被列车员用火救下

上车后列车员告诉他,怪物很早就有了,他们以前也是人,至于怎么来的,慢慢猜去吧!

圣诞屋(整个房子“ALL THROUGH THE HOUSE”)

这是一个定格动画,场景比较小,讲了圣诞夜,两个小朋友好奇圣诞老人送礼物

于是偷偷跑出去看,结果看到了一个异形一样的怪物,怪物说他们是好孩子,给了孩子想要的礼物

可是怪物走后,孩子们陷入沉思,如果我们不是好孩子结果会怎么样?

《生活厨房》(Life Hutch)

根据在2018年去世的作家哈尔兰·艾莉森同名小说改编,原作曾被改编成为一款VR游戏。

讲述了在一次执行任务失败进入生存屋的男人,遭遇了失控的护理机器人

生存屋变身死亡牢笼,为了生存,男人和机器人展开了一场斗争!

溺水巨人(THE DROWNED GIANT)

原著作者J.G.巴拉德的《太阳的帝国》曾被斯皮尔伯格改编成同名电影。

本集由身为监制的《死侍》导演提姆·米勒亲自操刀制作,预告里巨人的头发质感非常不错。

作为收尾作品,这一部更多的是一种哲学思考的成分

在海岸边某一天飘来一个溺水的巨人

围观的人类从兴趣浓厚到逐渐适应再到慢慢遗忘巨人的存在

很有哲理的一部短片,完成度较高!

视频信息
General
 Unique ID                      : 220367974312521453788184042477439077229 (0xA5C953FB2A955D25C92B79F79546CB6D)
 Complete name                  : F:\Love.Death.and.Robots.S02.1080p.NF.WEBRip.DDP5.1.Atmos.x264-MIXED[rartv]\Love.Death.and.Robots.S02E01.1080p.WEB.H264-GGEZ.mkv
 Format                         : Matroska
 Format version                 : Version 4
 File size                      : 322 MiB
 Duration                       : 12 min 36 s
 Overall bit rate mode          : Variable
 Overall bit rate               : 3 569 kb/s
 Writing application            : mkvmerge v49.0.0 ('Sick Of Losing Soulmates') 64-bit
 Writing library                : libebml v1.4.0 + libmatroska v1.6.1
 Video
 ID                             : 1
 Format                         : AVC
 Format/Info                    : Advanced Video Codec
 Format profile                 : High@L4
 Format settings                : CABAC / 4 Ref Frames
 Format settings, CABAC         : Yes
 Format settings, Reference fra : 4 frames
 Codec ID                       : V_MPEG4/ISO/AVC
 Duration                       : 12 min 36 s
 Bit rate mode                  : Variable
 Bit rate                       : 2 730 kb/s
 Maximum bit rate               : 20.0 Mb/s
 Width                          : 1 920 pixels
 Height                         : 1 080 pixels
 Display aspect ratio           : 16:9
 Frame rate mode                : Constant
 Frame rate                     : 24.000 FPS
 Color space                    : YUV
 Chroma subsampling             : 4:2:0
 Bit depth                      : 8 bits
 Scan type                      : Progressive
 Bits/(Pixel*Frame)             : 0.055
 Stream size                    : 246 MiB (76%)
 Writing library                : x264 core 148 r2722 1b0121b
 Encoding settings              : cabac=1 / ref=4 / deblock=1:0:0 / analyse=0x3:0x111 / me=umh / subme=10 / psy=1 / psy_rd=1.00:0.00 / mixed_ref=1 / me_range=120 / chroma_me=1 / trellis=2 / 8x8dct=1 / cqm=0 / deadzone=21,11 / fast_pskip=1 / chroma_qp_offset=-2 / threads=8 / lookahead_threads=2 / sliced_threads=0 / nr=0 / decimate=1 / interlaced=0 / bluray_compat=0 / stitchable=1 / constrained_intra=0 / bframes=16 / b_pyramid=2 / b_adapt=2 / b_bias=0 / direct=3 / weightb=1 / open_gop=0 / weightp=2 / keyint=240 / keyint_min=121 / scenecut=0 / intra_refresh=0 / rc_lookahead=240 / rc=crf / mbtree=1 / crf=16.0 / qcomp=0.50 / qpmin=6 / qpmax=51 / qpstep=4 / vbv_maxrate=20000 / vbv_bufsize=25000 / crf_max=0.0 / nal_hrd=vbr / filler=0 / ip_ratio=1.40 / aq=1:0.80
 Default                        : Yes
 Forced                         : No
 Audio
 ID                             : 2
 Format                         : E-AC-3 JOC
 Format/Info                    : Enhanced AC-3 with Joint Object Coding
 Commercial name                : Dolby Digital Plus with Dolby Atmos
 Codec ID                       : A_EAC3
 Duration                       : 12 min 36 s
 Bit rate mode                  : Constant
 Bit rate                       : 768 kb/s
 Channel(s)                     : 6 channels
 Channel layout                 : L R C LFE Ls Rs
 Sampling rate                  : 48.0 kHz
 Frame rate                     : 31.250 FPS (1536 SPF)
 Compression mode               : Lossy
 Stream size                    : 69.3 MiB (22%)
 Language                       : English
 Service kind                   : Complete Main
 Default                        : Yes
 Forced                         : No
 Complexity index               : 16
 Number of dynamic objects      : 15
 Bed channel count              : 1 channel
 Bed channel configuration      : LFE
 Text #1
 ID                             : 3
 Format                         : UTF-8
 Codec ID                       : S_TEXT/UTF8
 Codec ID/Info                  : UTF-8 Plain Text
 Title                          : English [SDH]
 Language                       : English
 Default                        : No
 Forced                         : No
 Text #2
 ID                             : 4
 Format                         : UTF-8
 Codec ID                       : S_TEXT/UTF8
 Codec ID/Info                  : UTF-8 Plain Text
 Title                          : Arabic
 Language                       : Arabic
 Default                        : No
 Forced                         : No
 Text #3
 ID                             : 5
 Format                         : UTF-8
 Codec ID                       : S_TEXT/UTF8
 Codec ID/Info                  : UTF-8 Plain Text
 Title                          : Chinese Simplified
 Language                       : Chinese
 Default                        : No
 Forced                         : No
 Text #4
 ID                             : 6
 Format                         : UTF-8
 Codec ID                       : S_TEXT/UTF8
 Codec ID/Info                  : UTF-8 Plain Text
 Title                          : Chinese Traditional
 Language                       : Chinese
 Default                        : No
 Forced                         : No
 Text #5
 ID                             : 7
 Format                         : UTF-8
 Codec ID                       : S_TEXT/UTF8
 Codec ID/Info                  : UTF-8 Plain Text
 Title                          : Croatian
 Language                       : Croatian
 Default                        : No
 Forced                         : No
 Text #6
 ID                             : 8
 Format                         : UTF-8
 Codec ID                       : S_TEXT/UTF8
 Codec ID/Info                  : UTF-8 Plain Text
 Title                          : Czech
 Language                       : Czech
 Default                        : No
 Forced                         : No
 Text #7
 ID                             : 9
 Format                         : UTF-8
 Codec ID                       : S_TEXT/UTF8
 Codec ID/Info                  : UTF-8 Plain Text
 Title                          : Danish
 Language                       : Danish
 Default                        : No
 Forced                         : No
 Text #8
 ID                             : 10
 Format                         : UTF-8
 Codec ID                       : S_TEXT/UTF8
 Codec ID/Info                  : UTF-8 Plain Text
 Title                          : Dutch
 Language                       : Dutch
 Default                        : No
 Forced                         : No
 Text #9
 ID                             : 11
 Format                         : UTF-8
 Codec ID                       : S_TEXT/UTF8
 Codec ID/Info                  : UTF-8 Plain Text
 Title                          : European Spanish
 Language                       : Spanish
 Default                        : No
 Forced                         : No
 Text #10
 ID                             : 12
 Format                         : UTF-8
 Codec ID                       : S_TEXT/UTF8
 Codec ID/Info                  : UTF-8 Plain Text
 Title                          : Finnish
 Language                       : Finnish
 Default                        : No
 Forced                         : No
 Text #11
 ID                             : 13
 Format                         : UTF-8
 Codec ID                       : S_TEXT/UTF8
 Codec ID/Info                  : UTF-8 Plain Text
 Title                          : French
 Language                       : French
 Default                        : No
 Forced                         : No
 Text #12
 ID                             : 14
 Format                         : UTF-8
 Codec ID                       : S_TEXT/UTF8
 Codec ID/Info                  : UTF-8 Plain Text
 Title                          : German
 Language                       : German
 Default                        : No
 Forced                         : No
 Text #13
 ID                             : 15
 Format                         : UTF-8
 Codec ID                       : S_TEXT/UTF8
 Codec ID/Info                  : UTF-8 Plain Text
 Title                          : Greek
 Language                       : Greek
 Default                        : No
 Forced                         : No
 Text #14
 ID                             : 16
 Format                         : UTF-8
 Codec ID                       : S_TEXT/UTF8
 Codec ID/Info                  : UTF-8 Plain Text
 Title                          : Hebrew
 Language                       : Hebrew
 Default                        : No
 Forced                         : No
 Text #15
 ID                             : 17
 Format                         : UTF-8
 Codec ID                       : S_TEXT/UTF8
 Codec ID/Info                  : UTF-8 Plain Text
 Title                          : Hungarian
 Language                       : Hungarian
 Default                        : No
 Forced                         : No
 Text #16
 ID                             : 18
 Format                         : UTF-8
 Codec ID                       : S_TEXT/UTF8
 Codec ID/Info                  : UTF-8 Plain Text
 Title                          : Indonesian
 Language                       : Indonesian
 Default                        : No
 Forced                         : No
 Text #17
 ID                             : 19
 Format                         : UTF-8
 Codec ID                       : S_TEXT/UTF8
 Codec ID/Info                  : UTF-8 Plain Text
 Title                          : Italian
 Language                       : Italian
 Default                        : No
 Forced                         : No
 Text #18
 ID                             : 20
 Format                         : UTF-8
 Codec ID                       : S_TEXT/UTF8
 Codec ID/Info                  : UTF-8 Plain Text
 Title                          : Japanese
 Language                       : Japanese
 Default                        : No
 Forced                         : No
 Text #19
 ID                             : 21
 Format                         : UTF-8
 Codec ID                       : S_TEXT/UTF8
 Codec ID/Info                  : UTF-8 Plain Text
 Title                          : Korean
 Language                       : Korean
 Default                        : No
 Forced                         : No
 Text #20
 ID                             : 22
 Format                         : UTF-8
 Codec ID                       : S_TEXT/UTF8
 Codec ID/Info                  : UTF-8 Plain Text
 Title                          : Malay
 Language                       : Malay
 Default                        : No
 Forced                         : No
 Text #21
 ID                             : 23
 Format                         : UTF-8
 Codec ID                       : S_TEXT/UTF8
 Codec ID/Info                  : UTF-8 Plain Text
 Title                          : Norwegian
 Language                       : Norwegian Bokmal
 Default                        : No
 Forced                         : No
 Text #22
 ID                             : 24
 Format                         : UTF-8
 Codec ID                       : S_TEXT/UTF8
 Codec ID/Info                  : UTF-8 Plain Text
 Title                          : Polish
 Language                       : Polish
 Default                        : No
 Forced                         : No
 Text #23
 ID                             : 25
 Format                         : UTF-8
 Codec ID                       : S_TEXT/UTF8
 Codec ID/Info                  : UTF-8 Plain Text
 Title                          : Portuguese
 Language                       : Portuguese
 Default                        : No
 Forced                         : No
 Text #24
 ID                             : 26
 Format                         : UTF-8
 Codec ID                       : S_TEXT/UTF8
 Codec ID/Info                  : UTF-8 Plain Text
 Title                          : Portuguese Brazilian
 Language                       : Portuguese
 Default                        : No
 Forced                         : No
 Text #25
 ID                             : 27
 Format                         : UTF-8
 Codec ID                       : S_TEXT/UTF8
 Codec ID/Info                  : UTF-8 Plain Text
 Title                          : Romanian
 Language                       : Romanian
 Default                        : No
 Forced                         : No
 Text #26
 ID                             : 28
 Format                         : UTF-8
 Codec ID                       : S_TEXT/UTF8
 Codec ID/Info                  : UTF-8 Plain Text
 Title                          : Russian
 Language                       : Russian
 Default                        : No
 Forced                         : No
 Text #27
 ID                             : 29
 Format                         : UTF-8
 Codec ID                       : S_TEXT/UTF8
 Codec ID/Info                  : UTF-8 Plain Text
 Title                          : Spanish
 Language                       : Spanish
 Default                        : No
 Forced                         : No
 Text #28
 ID                             : 30
 Format                         : UTF-8
 Codec ID                       : S_TEXT/UTF8
 Codec ID/Info                  : UTF-8 Plain Text
 Title                          : Swedish
 Language                       : Swedish
 Default                        : No
 Forced                         : No
 Text #29
 ID                             : 31
 Format                         : UTF-8
 Codec ID                       : S_TEXT/UTF8
 Codec ID/Info                  : UTF-8 Plain Text
 Title                          : Thai
 Language                       : Thai
 Default                        : No
 Forced                         : No
 Text #30
 ID                             : 32
 Format                         : UTF-8
 Codec ID                       : S_TEXT/UTF8
 Codec ID/Info                  : UTF-8 Plain Text
 Title                          : Turkish
 Language                       : Turkish
 Default                        : No
 Forced                         : No
 Text #31
 ID                             : 33
 Format                         : UTF-8
 Codec ID                       : S_TEXT/UTF8
 Codec ID/Info                  : UTF-8 Plain Text
 Title                          : Vietnamese
 Language                       : Vietnamese
 Default                        : No
 Forced                         : No
视频截图
下载地址

Love.Death.and.Robots.S02.1080p.NF.WEBRip.DDP5.1.Atmos.x264-MIXED[rartv]:magnet:?xt=urn:btih:AF402769D1F2318BDF5047C8C0CF1B46E92958AC

留下评论

Secured By miniOrange