Friends Reunion Special:老友记重聚特辑

%title插图%num

◎译  名 老友记重聚特辑
◎片  名 Friends The Special
◎年  代 2021
◎国  家 美国
◎类  别 喜剧/爱情
◎语  言 英语
◎字  幕 中文字幕
◎IMDb评分  8.7/10 from 850 users
◎IMDb链接  https://www.imdb.com/title/tt11337862/
◎文件格式 X264 + AC3
◎视频尺寸 1920 x 1080
◎文件大小 1 DVD
◎片  长 103 Mins
◎导  演 本·温斯顿 Ben Winston
◎主  演 詹妮弗·安妮斯顿 Jennifer Aniston
      柯特妮·考克斯 Courteney Cox
      马修·派瑞 Matthew Perry
      大卫·休默 David Schwimmer
      丽莎·库卓 Lisa Kudrow
      马特·勒布朗 Matt LeBlanc
      瑞茜·威瑟斯彭 Reese Witherspoon
      Lady Gaga
      大卫·贝克汉姆 David Beckham
      贾斯汀·比伯 Justin Bieber
      詹姆斯·柯登 James Corden
      辛迪·克劳馥 Cindy Crawford
      卡拉·迪瓦伊 Cara Delevingne
      埃利奥特·古尔德 Elliott Gould
      基特·哈灵顿 Kit Harington
      拉里·哈金 Larry Hankin
      敏迪·卡灵 Mindy Kaling
      托马斯·列农 Thomas Lennon
      克里斯蒂娜·皮克勒斯 Christina Pickles
      汤姆·塞立克 Tom Selleck
      詹姆斯·迈克尔·泰勒 James Michael Tyler
      玛姬·惠勒 Maggie Wheeler
      马拉拉·尤萨夫扎伊 Malala Yousafzai

简介

根据Deadline表示,经过艰难的谈判和协商,詹妮弗·安妮斯顿、柯特妮·考克斯、丽莎·库卓、大卫·休默、马特·勒布朗、马修·派瑞等六位主角与华纳电视公司达成协议共识,他们将重聚并共同录制一个《老友记》特辑,时长为一小时左右,每位演员的出场报酬在300万~400万美元。

影片截图

视频信息

General
 Unique ID                      : 234837105080396840991676457656063061702 (0xB0ABFB34B0F662E68E596962BC576EC6)
 Complete name                  : D:\迅雷下载\Friends.The.Reunion.2021.1080p.WEB-DL.X264\老友记重聚特辑.Friends.The.Reunion.2021.1080p.WEB-DL.X264.mkv
 Format                         : Matroska
 Format version                 : Version 2
 File size                      : 2.00 GiB
 Duration                       : 1 h 43 min
 Overall bit rate               : 2 757 kb/s
 Encoded date                   : UTC 2021-05-27 12:52:41
 Writing application            : mkvmerge v4.8.0 ('I Got The…') 编译于 May 24 2011 03:12:58
 Writing library                : libebml v1.2.0 + libmatroska v1.1.0
 Video
 ID                             : 1
 Format                         : AVC
 Format/Info                    : Advanced Video Codec
 Format profile                 : High@L4.1
 Format settings                : CABAC / 4 Ref Frames
 Format settings, CABAC         : Yes
 Format settings, Reference fra : 4 frames
 Muxing mode                    : Header stripping
 Codec ID                       : V_MPEG4/ISO/AVC
 Duration                       : 1 h 43 min
 Bit rate                       : 2 500 kb/s
 Width                          : 1 920 pixels
 Height                         : 1 080 pixels
 Display aspect ratio           : 16:9
 Frame rate mode                : Constant
 Frame rate                     : 29.970 (29970/1000) FPS
 Color space                    : YUV
 Chroma subsampling             : 4:2:0
 Bit depth                      : 8 bits
 Scan type                      : Progressive
 Bits/(Pixel*Frame)             : 0.040
 Stream size                    : 1.77 GiB (89%)
 Writing library                : x264 core 152 r2851M ba24899
 Encoding settings              : cabac=1 / ref=4 / deblock=1:-1:-1 / analyse=0x3:0x113 / me=umh / subme=9 / psy=1 / psy_rd=1.00:0.15 / mixed_ref=1 / me_range=24 / chroma_me=1 / trellis=2 / 8x8dct=1 / cqm=0 / deadzone=21,11 / fast_pskip=1 / chroma_qp_offset=-3 / threads=32 / lookahead_threads=4 / sliced_threads=0 / nr=0 / decimate=1 / interlaced=0 / bluray_compat=0 / constrained_intra=0 / bframes=3 / b_pyramid=2 / b_adapt=2 / b_bias=0 / direct=3 / weightb=1 / open_gop=0 / weightp=2 / keyint=250 / keyint_min=25 / scenecut=40 / intra_refresh=0 / rc_lookahead=50 / rc=2pass / mbtree=1 / bitrate=2500 / ratetol=1.0 / qcomp=0.60 / qpmin=0 / qpmax=69 / qpstep=4 / cplxblur=20.0 / qblur=0.5 / vbv_maxrate=31250 / vbv_bufsize=31250 / nal_hrd=none / filler=0 / ip_ratio=1.40 / aq=3:1.00
 Default                        : Yes
 Forced                         : No
 Audio
 ID                             : 2
 Format                         : AC-3
 Format/Info                    : Audio Coding 3
 Commercial name                : Dolby Digital
 Muxing mode                    : Header stripping
 Codec ID                       : A_AC3
 Duration                       : 1 h 43 min
 Bit rate mode                  : Constant
 Bit rate                       : 256 kb/s
 Channel(s)                     : 6 channels
 Channel layout                 : L R C LFE Ls Rs
 Sampling rate                  : 48.0 kHz
 Frame rate                     : 31.250 FPS (1536 SPF)
 Compression mode               : Lossy
 Stream size                    : 190 MiB (9%)
 Service kind                   : Complete Main
 Default                        : Yes
 Forced                         : No
 Text
 ID                             : 3
 Format                         : SSA
 Codec ID                       : S_TEXT/SSA
 Codec ID/Info                  : Sub Station Alpha
 Compression mode               : Lossless
 Default                        : Yes
 Forced                         : No

下载地址

Friends.The.Reunion.2021.1080p.WEB-DL.X264:magnet:?xt=urn:btih:C7AF13BB6185997F56CFFF22A3FF3C2BECE26AAE

附老友记全十季下载:

老友记.Friends.COMPLETE.1994-2003.BD.MiniSD-TLF:magnet:?xt=urn:btih:D6782CE9C00D23E44E037B832CED0E2AEC1A71DC&dn=%E8%80%81%E5%8F%8B%E8%AE%B0.Friends.COMPLETE.1994-2003.BD.MiniSD-TLF)

老友记.全十季.1994-2004.中英字幕£CMCT触摸春天:magnet:?xt=urn:btih:A697AD9AB61EF9B994EC74CA3ED0C5848B9E38AC&dn=%E8%80%81%E5%8F%8B%E8%AE%B0.%E5%85%A8%E5%8D%81%E5%AD%A3.1994-2004.%E4%B8%AD%E8%8B%B1%E5%AD%97%E5%B9%95%EF%BF%A1CMCT%E8%A7%A6%E6%91%B8%E6%98%A5%E5%A4%A9)

Friends.Complete.BluRay.720p.x264.AAC-iSCG:magnet:?xt=urn:btih:D563EF792A247A5547D8D1191B41F2CBE0B2382E

FRIENDS.S1-S10.DVD9.ISO:magnet:?xt=urn:btih:23a4dcc97837152244629336ca5d3582ac6919dc

留下评论

Secured By miniOrange