《新神榜:哪吒重生》[国粤双语/中字][WEB-MKV-1080p/2160p(4k)][60f][120f]

%title插图%num

◎译  名 New Gods:Nezha Reborn / 新封神:哪吒重生
◎片  名 新神榜:哪吒重生
◎年  代 2021
◎产  地 中国大陆
◎类  别 动作 / 动画 / 奇幻
◎语  言 汉语普通话
◎上映日期 2021-02-12(中国大陆)
◎IMDb评分 6.8/10 from 71 users
◎IMDb链接 https://www.imdb.com/title/tt13269670
◎豆瓣评分 7.3/10 from 85426 users
◎豆瓣链接 https://movie.douban.com/subject/34779692
◎片  长 116分钟
◎导  演 赵霁 Ji Zhao
◎编  剧 沐川
◎主  演 杨天翔 Tianxiang Yang
       张赫 He Zhang
       宣晓鸣 Xiaoming Xuan
       李诗萌 Shimeng Li
       朱可儿 Keer Zhu
       凌振赫 Zhenhe Ling
       刘若班 Ruoban Liu
       张遥函 Yaohan Zhang
       张喆 Zhe Zhang
       高增志 Zengzhi Gao
       郭浩然 Haoran Guo

◎标  签 哪吒 | 国漫 | 追光动画 | 动画 | 奇幻 | 赛博朋克 | 2021 | 中国大陆

◎简  介

三千年前,天下动荡,人神共遇大劫,不想哪吒的一缕魂魄逃脱天罗地网,世世转世投胎,这一世与东海市酷爱机车的热血青年李云祥人神共生。然而龙族对哪吒恩怨并未善罢甘休,有着哪吒元神的李云祥,亦无法逃脱被龙族赶尽杀绝的宿命。东海危在旦夕,李云祥是否能够与哪吒元神并肩作战,成为抵抗龙族的英雄?东海市的子民能否得到拯救?

视频截图

视频信息

General
Unique ID : 251470906254893216929313346217517329085 (0xBD2F88EBEB7391DBAC2F090B18B92ABD)
Complete name : C:\迅雷下载[y5y4.com][高帧珍藏版]新神榜:哪吒重生.2021.WEB-DL.4K+1080P60FPS.120FPS.H265.AAC.2Audio-AIU\新神榜:哪吒重生.1080p.120FPS.mkv
Format : Matroska
Format version : Version 4
File size : 4.71 GiB
Duration : 1 h 57 min
Overall bit rate : 5 749 kb/s
Encoded date : UTC 2021-04-04 15:30:18
Writing application : mkvmerge v18.0.0 ('Apricity') 64-bit
Writing library : libebml v1.3.5 + libmatroska v1.4.8
Video
ID : 1
Format : HEVC
Format/Info : High Efficiency Video Coding
Format profile : Main@L5@Main
Codec ID : V_MPEGH/ISO/HEVC
Duration : 1 h 57 min
Bit rate : 5 490 kb/s
Width : 1 920 pixels
Height : 812 pixels
Display aspect ratio : 2.35:1
Frame rate mode : Variable
Frame rate : 120.000 FPS
Color space : YUV
Chroma subsampling : 4:2:0
Bit depth : 8 bits
Bits/(Pixel*Frame) : 0.029
Stream size : 4.49 GiB (95%)
Default : Yes
Forced : No
Color range : Limited
Color primaries : BT.709
Transfer characteristics : BT.709
Matrix coefficients : BT.709
Audio #1
ID : 2
Format : AAC LC
Format/Info : Advanced Audio Codec Low Complexity
Codec ID : A_AAC-2
Duration : 1 h 57 min
Bit rate : 126 kb/s
Channel(s) : 2 channels
Channel layout : L R
Sampling rate : 44.1 kHz
Frame rate : 43.066 FPS (1024 SPF)
Compression mode : Lossy
Stream size : 105 MiB (2%)
Title : 普通话
Language : Chinese
Default : Yes
Forced : No
Audio #2
ID : 3
Format : AAC LC
Format/Info : Advanced Audio Codec Low Complexity
Codec ID : A_AAC-2
Duration : 1 h 57 min
Bit rate : 126 kb/s
Channel(s) : 2 channels
Channel layout : L R
Sampling rate : 44.1 kHz
Frame rate : 43.066 FPS (1024 SPF)
Compression mode : Lossy
Stream size : 105 MiB (2%)
Title : 粤语
Language : Chinese
Default : No
Forced : No

下载地址

magnet:?xt=urn:btih:86580BACE9FA3D665F0EB822450825B39EE10EF9

留下评论

Secured By miniOrange