航拍中国 全3季

%title插图%num

由中央电视台出品,央视纪录国际传媒有限公司承制的大型航拍纪录片《航拍中国》是一部以空中视角俯瞰中国,全方位、立体化展示中国历史人文景观、自然地理风貌及经济社会发展变化的纪录片。该系列片共34集,每集50分钟,覆盖全国23个省、5个自治区、4个直辖市和2个特别行政区。

本片影像将全部由航拍完成,每集选取各省市区最具代表性和观赏性的历史、人文、自然和现代景观,以空中飞行线路为线索,以故事化的叙事方式展现一个观众既熟悉又充满新鲜感的美丽中国、生态中国、文明中国。

视频信息

航拍中国第1季01 新疆.mp4
容器:MPEG-4
总码率:9 259 kb/s
大小:3.23 GiB
时长:50 min 0 s 43 ms

(1):AVC
Profile:High@L4
码率:9 125 kb/s
文件大小:3.19 GiB (99%)
分辨率:1920×1080
画面比例:16:9(1.778)
像素宽高比:1.000
帧率:25.000 FPS
色彩空间:YUV
色度抽样:4:2:0
位深度:8 bits
扫描方式:逐行扫描
总帧数:75000
编码库:x264 core 157
编码设置:cabac=1 / ref=3 / deblock=1:0:0 / analyse=0x3:0x113 / me=hex / subme=7 / psy=1 / psy_rd=1.00:0.00 / mixed_ref=1 / me_range=16 / chroma_me=1 / trellis=1 / 8x8dct=1 / cqm=0 / deadzone=21,11 / fast_pskip=1 / chroma_qp_offset=-2 / threads=9 / lookahead_threads=1 / sliced_threads=0 / nr=0 / decimate=1 / interlaced=0 / bluray_compat=0 / constrained_intra=0 / bframes=3 / b_pyramid=2 / b_adapt=1 / b_bias=0 / direct=1 / weightb=1 / open_gop=0 / weightp=2 / keyint=250 / keyint_min=25 / scenecut=40 / intra_refresh=0 / rc_lookahead=40 / rc=crf / mbtree=1 / crf=20.0 / qcomp=0.60 / qpmin=0 / qpmax=69 / qpstep=4 / ip_ratio=1.40 / aq=1:1.00

音频(2):AAC
大小:45.9 MiB (1%)
码率:128 kb/s
采样率:48.0 kHz
声道数:2

====详细信息====
ID : 1
Format : AVC
Format/Info : Advanced Video Codec
Format profile : High@L4
Format settings, CABAC : Yes
Format settings, ReFrames : 4 frames
Codec ID : avc1
Codec ID/Info : Advanced Video Coding
Duration : 50 min 0 s
Bit rate : 9 125 kb/s
Width : 1 920 pixels
Height : 1 080 pixels
Display aspect ratio : 16:9
Frame rate mode : Constant
Frame rate : 25.000 FPS
Color space : YUV
Chroma subsampling : 4:2:0
Bit depth : 8 bits
Scan type : Progressive
Bits/(Pixel*Frame) : 0.176
Stream size : 3.19 GiB (99%)
Writing library : x264 core 157
Encoding settings : cabac=1 / ref=3 / deblock=1:0:0 / analyse=0x3:0x113 / me=hex / subme=7 / psy=1 / psy_rd=1.00:0.00 / mixed_ref=1 / me_range=16 / chroma_me=1 / trellis=1 / 8x8dct=1 / cqm=0 / deadzone=21,11 / fast_pskip=1 / chroma_qp_offset=-2 / threads=9 / lookahead_threads=1 / sliced_threads=0 / nr=0 / decimate=1 / interlaced=0 / bluray_compat=0 / constrained_intra=0 / bframes=3 / b_pyramid=2 / b_adapt=1 / b_bias=0 / direct=1 / weightb=1 / open_gop=0 / weightp=2 / keyint=250 / keyint_min=25 / scenecut=40 / intra_refresh=0 / rc_lookahead=40 / rc=crf / mbtree=1 / crf=20.0 / qcomp=0.60 / qpmin=0 / qpmax=69 / qpstep=4 / ip_ratio=1.40 / aq=1:1.00

ID : 2
Format : AAC
Format/Info : Advanced Audio Codec
Format profile : LC
Codec ID : 40
Duration : 50 min 0 s
Bit rate mode : Constant
Bit rate : 128 kb/s
Channel(s) : 2 channels
Channel positions : Front: L R
Sampling rate : 48.0 kHz
Frame rate : 46.875 FPS (1024 spf)
Compression mode : Lossy
Stream size : 45.9 MiB (1%)
Default : Yes
Alternate group : 1

截图
下载地址

https://cloud.189.cn/t/Qn6jqqf2EvIr (访问码:h9rn)

备用下载

https://cloud.189.cn/t/63YvI3yAn2Yz(访问码:7e6n)

留下评论

Secured By miniOrange