[2022欧美动画][Hotel Transylvania 4: Transformania:精灵旅社4:变身大冒险][国英台三语/中英字幕][WEB-DL-MKV-2160P(4K)]

%title插图%num

◎译  名 精灵旅社4:变身大冒险/鬼灵精怪大酒店:怪兽变错身(港)/尖叫旅社:变形怪兽(台)/精灵旅社4:人间大冒险/Hotel Transylvania 4
◎片  名 Hotel Transylvania 4: Transformania
◎年  代 2022
◎产  地 美国
◎类  别 喜剧/动画/奇幻/冒险
◎语  言 英语
◎上映日期 2022-01-14(美国网络)
◎IMDb链接  https://www.imdb.com/title/tt9848626/
◎豆瓣评分 /10 from 0 users
◎豆瓣链接 https://douban.com/subject/30472643/
◎导  演 德里克·德莱蒙 Derek Drymon / 詹妮弗·克鲁斯卡 Jennifer Kluska
◎编  剧 格恩迪·塔塔科夫斯基 Genndy Tartakovsky / 托德·杜伦 Todd Durham
◎主  演 布赖恩·哈尔 Brian Hull
       安迪·萨姆伯格 Andy Samberg
       赛琳娜·戈麦斯 Selena Gomez
       凯瑟琳·哈恩 Kathryn Hahn
       史蒂夫·布西密 Steve Buscemi
       大卫·斯佩德 David Spade
       科甘-迈克尔·凯 Keegan-Michael Key
       阿什·布林克夫 Asher Blinkoff
       布拉德·阿布瑞尔 Brad Abrell
       法兰·德瑞雪 Fran Drescher
       吉姆·加菲根 Jim Gaffigan
       莫莉·香侬 Molly Shannon
◎简  介

  《精灵旅社》系列大结局。一场意外使得精灵家族全员变身。为了避免身体永久互换,他们环游世界去寻找治疗方法,在人间开启了一段疯狂冒险,种种奇遇引发笑料不断。

视频信息

General
Unique ID                   : 102974864932720959081351539411951547529 (0x4D783CD2A74569711A9CA365EDEFF489)
Complete name               : X:\下载\[精灵旅社4:变身大冒险]Hotel.Transylvania.4.Transformania.2022.Amazon.WEB-DL.2160p.x265.HDR.DDP.5.1.3Audio-BOBO.mkv
Format                      : Matroska
Format version              : Version 4
File size                   : 10.2 GiB
Duration                    : 1 h 27 min
Overall bit rate            : 16.6 Mb/s
Encoded date                : UTC 2022-01-14 09:16:06
Writing application         : mkvmerge v60.0.0 ('Are We Copies?') 64-bit
Writing library             : libebml v1.4.2 + libmatroska v1.6.4

Video
ID                          : 1
Format                      : HEVC
Format/Info                 : High Efficiency Video Coding
Format profile              : Main 10@L5@Main
HDR format                  : SMPTE ST 2094 App 4, Version 1, HDR10+ Profile B compatible
Codec ID                    : V_MPEGH/ISO/HEVC
Duration                    : 1 h 27 min
Bit rate                    : 14.7 Mb/s
Width                       : 3 840 pixels
Height                      : 2 080 pixels
Display aspect ratio        : 1.85:1
Frame rate mode             : Constant
Frame rate                  : 23.976 (24000/1001) FPS
Color space                 : YUV
Chroma subsampling          : 4:2:0
Bit depth                   : 10 bits
Bits/(Pixel*Frame)          : 0.077
Stream size                 : 8.98 GiB (88%)
Default                     : Yes
Forced                      : No
Color range                 : Limited
Color primaries             : BT.2020
Transfer characteristics    : PQ
Matrix coefficients         : BT.2020 non-constant
Mastering display color pri : Display P3
Mastering display luminance : min: 0.0001 cd/m2, max: 1000 cd/m2
Maximum Content Light Level : 429 cd/m2
Maximum Frame-Average Light : 323 cd/m2

Audio #1
ID                          : 2
Format                      : E-AC-3
Format/Info                 : Enhanced AC-3
Commercial name             : Dolby Digital Plus
Codec ID                    : A_EAC3
Duration                    : 1 h 27 min
Bit rate mode               : Constant
Bit rate                    : 640 kb/s
Channel(s)                  : 6 channels
Channel layout              : L R C LFE Ls Rs
Sampling rate               : 48.0 kHz
Frame rate                  : 31.250 FPS (1536 SPF)
Compression mode            : Lossy
Stream size                 : 401 MiB (4%)
Title                       : English
Language                    : English
Service kind                : Complete Main
Default                     : No
Forced                      : No

Audio #2
ID                          : 3
Format                      : E-AC-3
Format/Info                 : Enhanced AC-3
Commercial name             : Dolby Digital Plus
Codec ID                    : A_EAC3
Duration                    : 1 h 27 min
Bit rate mode               : Constant
Bit rate                    : 640 kb/s
Channel(s)                  : 6 channels
Channel layout              : L R C LFE Ls Rs
Sampling rate               : 48.0 kHz
Frame rate                  : 31.250 FPS (1536 SPF)
Compression mode            : Lossy
Stream size                 : 401 MiB (4%)
Title                       : 中文(台灣)
Language                    : Chinese
Service kind                : Complete Main
Default                     : No
Forced                      : No

Audio #3
ID                          : 4
Format                      : E-AC-3
Format/Info                 : Enhanced AC-3
Commercial name             : Dolby Digital Plus
Codec ID                    : A_EAC3
Duration                    : 1 h 27 min
Bit rate mode               : Constant
Bit rate                    : 640 kb/s
Channel(s)                  : 6 channels
Channel layout              : L R C LFE Ls Rs
Sampling rate               : 48.0 kHz
Frame rate                  : 31.250 FPS (1536 SPF)
Compression mode            : Lossy
Stream size                 : 401 MiB (4%)
Title                       : 中文(中国)
Language                    : Chinese
Service kind                : Complete Main
Default                     : No
Forced                      : No

Text #1
ID                          : 5
Format                      : PGS
Muxing mode                 : zlib
Codec ID                    : S_HDMV/PGS
Codec ID/Info               : Picture based subtitle format used on BDs/HD-DVDs
Duration                    : 1 h 19 min
Bit rate                    : 40.5 kb/s
Count of elements           : 2606
Stream size                 : 23.1 MiB (0%)
Title                       : HDR简英字幕
Language                    : Chinese
Default                     : Yes
Forced                      : No

Text #2
ID                          : 6
Format                      : PGS
Muxing mode                 : zlib
Codec ID                    : S_HDMV/PGS
Codec ID/Info               : Picture based subtitle format used on BDs/HD-DVDs
Duration                    : 1 h 19 min
Bit rate                    : 41.2 kb/s
Count of elements           : 2606
Stream size                 : 23.4 MiB (0%)
Title                       : HDR繁英字幕
Language                    : Chinese
Default                     : No
Forced                      : No

Text #3
ID                          : 7
Format                      : UTF-8
Codec ID                    : S_TEXT/UTF8
Codec ID/Info               : UTF-8 Plain Text
Duration                    : 1 h 26 min
Bit rate                    : 40 b/s
Count of elements           : 1149
Stream size                 : 25.5 KiB (0%)
Title                       : 中文(简体)
Language                    : Chinese
Default                     : No
Forced                      : No

Text #4
ID                          : 8
Format                      : UTF-8
Codec ID                    : S_TEXT/UTF8
Codec ID/Info               : UTF-8 Plain Text
Duration                    : 1 h 26 min
Bit rate                    : 39 b/s
Count of elements           : 1175
Stream size                 : 24.7 KiB (0%)
Title                       : 中文(繁體)
Language                    : Chinese
Default                     : No
Forced                      : No

视频截图

下载地址

[精灵旅社4:变身大冒险]Hotel.Transylvania.4.Transformania.2022.Amazon.WEB-DL.2160p.x265.HDR.DDP.3Audio-BOBO 10.18GB:magnet:?xt=urn:btih:39529D6084500113520A50FAEF03696654F491D7

Hotel.Transylvania.Transformania.2022.HDR.2160p.WEB.H265-NAISU (多国语言字幕)9.26GB:magnet:?xt=urn:btih:C5A1BDCEC4A4CE7E90F3D6DB01F9757B8FD11152

[精灵旅社4:变身大冒险]Hotel.Transylvania.4.Transformania.2022.proper.WEB.1080p.x264.DDP.3Audio-BOBO 6.41GB:magnet:?xt=urn:btih:A5B1CD0FABF56AC3DB35DD11CE44C8BCC243686D

精灵旅社1-3 720p/1080p 国英语中英双字 19.18GB:magnet:?xt=urn:btih:CAC6BA98618B7DF6720FBB5A779FB9FD40BCBAD2

[www.domp4.cc]精灵旅社3.2018.BD1080p.国粤英台四语.中英双字.mp4 2.97GB:magnet:?xt=urn:btih:12B963CD997AECE479A08C2B1EA350909CE45E6B

[www.domp4.cc]精灵旅社2.2015.BD1080p.国粤英三语.中英双字.mp4 2.38GB:magnet:?xt=urn:btih:C89FD0FD6B9899B78EB57EE4DAC16B7E33853A93

[www.domp4.cc]精灵旅社.2012.BD1080p.国英双语.中英双字.mp4 2.59GB:magnet:?xt=urn:btih:46B7695BEE3B70A32044367E766498AB9B8A99FD

留下评论

LightDark
LightDark