[2021美国纪录][Welcome to Earth:欢迎来地球 第一季][官方多国字幕][WEB-DL-MKV-1080P(4K)]

%title插图%num

◎译  名 欢迎来地球/带你游地球/带您探索地球
◎片  名 Welcome to Earth
◎年  代 2021
◎产  地 美国
◎类  别 纪录片/冒险
◎语  言 英语
◎上映日期 2021-12-08(美国)
◎IMDB链接 https://www.imdb.com/title/tt13623992/
◎豆瓣评分 9.3/10 from 787 users
◎豆瓣链接 https://douban.com/subject/35324583/
◎集  数 6
◎导  演 达伦·阿伦诺夫斯基 Darren Aronofsky
◎主  演 威尔·史密斯 Will Smith
◎标  签 纪录片 | 威尔·史密斯 | 自然 | 地球 | 美国 | 2021 | 迪士尼 | 国家地理
◎简  介

  威尔·史密斯从活火山到深海探险,足迹遍及地球的各个角落。

视频信息

General
Unique ID                   : 127580035136145301209847514154756401157 (0x5FFB0560170D76B96FD25986C422E805)
Complete name               : E:\DSfile\Welcome.to.Earth.S01.2160p.DSNP.WEB-DL.x265.10bit.HDR.DDP5.1-KOGi[rartv]\Welcome.to.Earth.S01E01.HDR.2160p.WEB.h265-KOGi.mkv
Format                      : Matroska
Format version              : Version 4
File size                   : 4.98 GiB
Duration                    : 43 min 16 s
Overall bit rate            : 16.5 Mb/s
Writing application         : mkvmerge v59.0.0 ('Shining Star') 64-bit
Writing library             : libebml v1.4.2 + libmatroska v1.6.4

Video
ID                          : 1
Format                      : HEVC
Format/Info                 : High Efficiency Video Coding
Format profile              : Main 10@L5@High
HDR format                  : SMPTE ST 2086, HDR10 compatible
Codec ID                    : V_MPEGH/ISO/HEVC
Duration                    : 43 min 16 s
Bit rate                    : 16.2 Mb/s
Width                       : 3 840 pixels
Height                      : 2 160 pixels
Display aspect ratio        : 16:9
Frame rate mode             : Constant
Frame rate                  : 23.976 (24000/1001) FPS
Color space                 : YUV
Chroma subsampling          : 4:2:0
Bit depth                   : 10 bits
Bits/(Pixel*Frame)          : 0.082
Stream size                 : 4.91 GiB (98%)
Language                    : English
Default                     : Yes
Forced                      : No
Color range                 : Limited
Color primaries             : BT.2020
Transfer characteristics    : PQ
Matrix coefficients         : BT.2020 non-constant
Mastering display color pri : Display P3
Mastering display luminance : min: 0.0010 cd/m2, max: 1000 cd/m2

Audio
ID                          : 2
Format                      : E-AC-3
Format/Info                 : Enhanced AC-3
Commercial name             : Dolby Digital Plus
Codec ID                    : A_EAC3
Duration                    : 43 min 16 s
Bit rate mode               : Constant
Bit rate                    : 256 kb/s
Channel(s)                  : 6 channels
Channel layout              : L R C LFE Ls Rs
Sampling rate               : 48.0 kHz
Frame rate                  : 31.250 FPS (1536 SPF)
Compression mode            : Lossy
Stream size                 : 79.2 MiB (2%)
Language                    : English
Service kind                : Complete Main
Default                     : Yes
Forced                      : No

Text #1
ID                          : 3
Format                      : UTF-8
Codec ID                    : S_TEXT/UTF8
Codec ID/Info               : UTF-8 Plain Text
Duration                    : 42 min 34 s
Bit rate                    : 70 b/s
Count of elements           : 528
Stream size                 : 21.9 KiB (0%)
Title                       : English (SDH)
Language                    : English
Default                     : No
Forced                      : No

Text #2
ID                          : 4
Format                      : UTF-8
Codec ID                    : S_TEXT/UTF8
Codec ID/Info               : UTF-8 Plain Text
Duration                    : 42 min 57 s
Bit rate                    : 58 b/s
Count of elements           : 445
Stream size                 : 18.5 KiB (0%)
Title                       : Dansk
Language                    : Danish
Default                     : No
Forced                      : No

Text #3
ID                          : 5
Format                      : UTF-8
Codec ID                    : S_TEXT/UTF8
Codec ID/Info               : UTF-8 Plain Text
Duration                    : 42 min 57 s
Bit rate                    : 64 b/s
Count of elements           : 453
Stream size                 : 20.3 KiB (0%)
Title                       : Deutsch
Language                    : German
Default                     : No
Forced                      : No

Text #4
ID                          : 6
Format                      : UTF-8
Codec ID                    : S_TEXT/UTF8
Codec ID/Info               : UTF-8 Plain Text
Duration                    : 42 min 57 s
Bit rate                    : 57 b/s
Count of elements           : 454
Stream size                 : 18.1 KiB (0%)
Title                       : Español (Latinoamericano)
Language                    : Spanish
Default                     : No
Forced                      : No

Text #5
ID                          : 7
Format                      : UTF-8
Codec ID                    : S_TEXT/UTF8
Codec ID/Info               : UTF-8 Plain Text
Duration                    : 42 min 57 s
Bit rate                    : 54 b/s
Count of elements           : 456
Stream size                 : 17.1 KiB (0%)
Title                       : Español
Language                    : Spanish
Default                     : No
Forced                      : No

Text #6
ID                          : 8
Format                      : UTF-8
Codec ID                    : S_TEXT/UTF8
Codec ID/Info               : UTF-8 Plain Text
Duration                    : 42 min 57 s
Bit rate                    : 52 b/s
Count of elements           : 446
Stream size                 : 16.6 KiB (0%)
Title                       : Suomi
Language                    : Finnish
Default                     : No
Forced                      : No

Text #7
ID                          : 9
Format                      : UTF-8
Codec ID                    : S_TEXT/UTF8
Codec ID/Info               : UTF-8 Plain Text
Duration                    : 42 min 57 s
Bit rate                    : 61 b/s
Count of elements           : 474
Stream size                 : 19.5 KiB (0%)
Title                       : Français
Language                    : French
Default                     : No
Forced                      : No

Text #8
ID                          : 10
Format                      : UTF-8
Codec ID                    : S_TEXT/UTF8
Codec ID/Info               : UTF-8 Plain Text
Duration                    : 42 min 57 s
Bit rate                    : 56 b/s
Count of elements           : 459
Stream size                 : 17.9 KiB (0%)
Title                       : Italiano
Language                    : Italian
Default                     : No
Forced                      : No

Text #9
ID                          : 11
Format                      : UTF-8
Codec ID                    : S_TEXT/UTF8
Codec ID/Info               : UTF-8 Plain Text
Duration                    : 42 min 57 s
Bit rate                    : 48 b/s
Count of elements           : 432
Stream size                 : 15.3 KiB (0%)
Title                       : Japanese
Language                    : Japanese
Default                     : No
Forced                      : No

Text #10
ID                          : 12
Format                      : UTF-8
Codec ID                    : S_TEXT/UTF8
Codec ID/Info               : UTF-8 Plain Text
Duration                    : 42 min 57 s
Bit rate                    : 61 b/s
Count of elements           : 453
Stream size                 : 19.4 KiB (0%)
Title                       : Korean
Language                    : Korean
Default                     : No
Forced                      : No

Text #11
ID                          : 13
Format                      : UTF-8
Codec ID                    : S_TEXT/UTF8
Codec ID/Info               : UTF-8 Plain Text
Duration                    : 42 min 57 s
Bit rate                    : 44 b/s
Count of elements           : 361
Stream size                 : 13.9 KiB (0%)
Title                       : Nederlands
Language                    : Dutch
Default                     : No
Forced                      : No

Text #12
ID                          : 14
Format                      : UTF-8
Codec ID                    : S_TEXT/UTF8
Codec ID/Info               : UTF-8 Plain Text
Duration                    : 42 min 57 s
Bit rate                    : 57 b/s
Count of elements           : 454
Stream size                 : 18.2 KiB (0%)
Title                       : Norsk
Language                    : Norwegian
Default                     : No
Forced                      : No

Text #13
ID                          : 15
Format                      : UTF-8
Codec ID                    : S_TEXT/UTF8
Codec ID/Info               : UTF-8 Plain Text
Duration                    : 42 min 57 s
Bit rate                    : 55 b/s
Count of elements           : 455
Stream size                 : 17.4 KiB (0%)
Title                       : Polski
Language                    : Polish
Default                     : No
Forced                      : No

Text #14
ID                          : 16
Format                      : UTF-8
Codec ID                    : S_TEXT/UTF8
Codec ID/Info               : UTF-8 Plain Text
Duration                    : 42 min 57 s
Bit rate                    : 56 b/s
Count of elements           : 458
Stream size                 : 17.9 KiB (0%)
Title                       : Português
Language                    : Portuguese
Default                     : No
Forced                      : No

Text #15
ID                          : 17
Format                      : UTF-8
Codec ID                    : S_TEXT/UTF8
Codec ID/Info               : UTF-8 Plain Text
Duration                    : 42 min 57 s
Bit rate                    : 55 b/s
Count of elements           : 440
Stream size                 : 17.4 KiB (0%)
Title                       : Português (Brasil)
Language                    : Portuguese
Default                     : No
Forced                      : No

Text #16
ID                          : 18
Format                      : UTF-8
Codec ID                    : S_TEXT/UTF8
Codec ID/Info               : UTF-8 Plain Text
Duration                    : 42 min 57 s
Bit rate                    : 58 b/s
Count of elements           : 435
Stream size                 : 18.3 KiB (0%)
Title                       : Svenska
Language                    : Swedish
Default                     : No
Forced                      : No

Text #17
ID                          : 19
Format                      : UTF-8
Codec ID                    : S_TEXT/UTF8
Codec ID/Info               : UTF-8 Plain Text
Duration                    : 42 min 57 s
Bit rate                    : 51 b/s
Count of elements           : 459
Stream size                 : 16.3 KiB (0%)
Title                       : Chinese (Traditional)
Language                    : Chinese
Default                     : No
Forced                      : No

Text #18
ID                          : 20
Format                      : UTF-8
Codec ID                    : S_TEXT/UTF8
Codec ID/Info               : UTF-8 Plain Text
Duration                    : 42 min 57 s
Bit rate                    : 51 b/s
Count of elements           : 463
Stream size                 : 16.1 KiB (0%)
Title                       : Chinese (Simplified)
Language                    : Chinese
Default                     : No
Forced                      : No

Text #19
ID                          : 21
Format                      : UTF-8
Codec ID                    : S_TEXT/UTF8
Codec ID/Info               : UTF-8 Plain Text
Duration                    : 42 min 57 s
Bit rate                    : 51 b/s
Count of elements           : 462
Stream size                 : 16.3 KiB (0%)
Title                       : Chinese (Hong Kong)
Language                    : Chinese
Default                     : No
Forced                      : No

视频截图

下载地址

Welcome.to.Earth.S01.2160p.DSNP.WEB-DL.x265.10bit.HDR.DDP5.1-KOGi[rartv] 26.36GB:magnet:?xt=urn:btih:8F91E72BAF64A2097D07C5DAAC4C6AA732E6499E

Welcome.to.Earth.S01.1080p.DSNP.WEBRip.DDP5.1.x264-KOGi[rartv] 12.47GB:magnet:?xt=urn:btih:8F7129882294B55E1B2EDE2400C476B15E9CF452

Welcome.to.Earth.S01.720p.DSNP.WEBRip.DDP5.1.x264-KOGi[rartv] 6.62GB:magnet:?xt=urn:btih:F487C9B93529B22C93DAB48D2D320EDB26EC3D48

霸王龙压制组

阿里云网盘 全6集.官方中字
https://www.aliyundrive.com/s/UweJCHt8KTK

远鉴字幕组

MP4 1080P中字

迅雷云盘 https://pan.xunlei.com/s/VMqP1-jSYs_M3QRZeUDMQpSpA1 提取码:d7j7

阿里云盘 https://www.aliyundrive.com/s/iHquivH3XdQ 

Visits: 23

留下评论

LightDark
LightDark