[2021美国喜剧][The Standups:单口喜剧大杂烩/栋笃笑大串连 第三季][官译多国字幕][WEBRip-MKV-1080P]

%title插图%num

◎译  名 栋笃笑大串连/单口喜剧大杂烩/栋笃笑大串连(港)
◎片  名 The Standups|
◎年  代 2021
◎产  地 美国
◎类  别 喜剧
◎语  言 英语
◎上映日期 2021-12-29 (美国)
◎IMDb评分  6.7/10 from 520 users
◎IMDb链接  http://www.imdb.com/title/tt7107518/
◎豆瓣评分 7.1/10 from 39 users
◎豆瓣链接 https://movie.douban.com/subject/27083645/
◎集  数 6
◎片  长 30分钟
◎简  介

  六位最新锐的喜剧演员在洛杉矶的舞台上为观众奉上每段时长半小时的喜剧特辑,每段特辑都充满了俏皮的笑话、搞笑的故事和尴尬的坦白。

视频信息

General
Unique ID                   : 301821829768235856479740256807868623443 (0xE310C51D8AFCFA89D11914B9B1AEEA53)
Complete name               : E:\DSfile\The.Standups.S03.1080p.NF.WEBRip.DDP5.1.x264-KHN[rartv]\The.Standups.S03E01.Brian.Simpson.1080p.NF.WEB-DL.DDP5.1.H.264-KHN.mkv
Format                      : Matroska
Format version              : Version 4
File size                   : 1.43 GiB
Duration                    : 30 min 0 s
Overall bit rate mode       : Variable
Overall bit rate            : 6 801 kb/s
Movie name                  : The.Standups.S03E01.Brian.Simpson.1080p.NF.WEB-DL.DDP5.1.H.264-KHN.mkv
Encoded date                : UTC 2021-12-29 08:00:20
Writing application         : mkvmerge v60.0.0 ('Are We Copies?') 64-bit
Writing library             : libebml v1.4.2 + libmatroska v1.6.4

Video
ID                          : 1
Format                      : AVC
Format/Info                 : Advanced Video Codec
Format profile              : High@L4
Format settings             : CABAC / 4 Ref Frames
Format settings, CABAC      : Yes
Format settings, Reference  : 4 frames
Codec ID                    : V_MPEG4/ISO/AVC
Duration                    : 30 min 0 s
Bit rate mode               : Variable
Bit rate                    : 6 155 kb/s
Maximum bit rate            : 20.0 Mb/s
Width                       : 1 920 pixels
Height                      : 1 080 pixels
Display aspect ratio        : 16:9
Frame rate mode             : Constant
Frame rate                  : 23.976 (24000/1001) FPS
Color space                 : YUV
Chroma subsampling          : 4:2:0
Bit depth                   : 8 bits
Scan type                   : Progressive
Bits/(Pixel*Frame)          : 0.124
Stream size                 : 1.29 GiB (90%)
Writing library             : x264 core 148 r2727 7d026e8
Encoding settings           : cabac=1 / ref=4 / deblock=1:0:0 / analyse=0x3:0x111 / me=umh / subme=10 / psy=1 / psy_rd=1.00:0.00 / mixed_ref=1 / me_range=120 / chroma_me=1 / trellis=2 / 8x8dct=1 / cqm=0 / deadzone=21,11 / fast_pskip=1 / chroma_qp_offset=-2 / threads=8 / lookahead_threads=2 / sliced_threads=0 / nr=0 / decimate=1 / interlaced=0 / bluray_compat=0 / stitchable=1 / constrained_intra=0 / bframes=16 / b_pyramid=2 / b_adapt=2 / b_bias=0 / direct=3 / weightb=1 / open_gop=0 / weightp=2 / keyint=240 / keyint_min=121 / scenecut=0 / intra_refresh=0 / rc_lookahead=240 / rc=crf / mbtree=1 / crf=17.0 / qcomp=0.50 / qpmin=6 / qpmax=51 / qpstep=4 / vbv_maxrate=20000 / vbv_bufsize=25000 / crf_max=0.0 / nal_hrd=vbr / filler=0 / ip_ratio=1.40 / aq=1:0.80
Default                     : Yes
Forced                      : No

Audio
ID                          : 2
Format                      : E-AC-3
Format/Info                 : Enhanced AC-3
Commercial name             : Dolby Digital Plus
Codec ID                    : A_EAC3
Duration                    : 30 min 0 s
Bit rate mode               : Constant
Bit rate                    : 640 kb/s
Channel(s)                  : 6 channels
Channel layout              : L R C LFE Ls Rs
Sampling rate               : 48.0 kHz
Frame rate                  : 31.250 FPS (1536 SPF)
Compression mode            : Lossy
Stream size                 : 137 MiB (9%)
Title                       : English
Language                    : English
Service kind                : Complete Main
Default                     : Yes
Forced                      : No

Text #1
ID                          : 3
Format                      : UTF-8
Codec ID                    : S_TEXT/UTF8
Codec ID/Info               : UTF-8 Plain Text
Duration                    : 29 min 41 s
Bit rate                    : 121 b/s
Count of elements           : 525
Stream size                 : 26.5 KiB (0%)
Title                       : English
Language                    : English
Default                     : Yes
Forced                      : No

Text #2
ID                          : 4
Format                      : UTF-8
Codec ID                    : S_TEXT/UTF8
Codec ID/Info               : UTF-8 Plain Text
Duration                    : 29 min 42 s
Bit rate                    : 143 b/s
Count of elements           : 476
Stream size                 : 31.3 KiB (0%)
Title                       : Arabic
Language                    : Arabic
Default                     : No
Forced                      : No

Text #3
ID                          : 5
Format                      : UTF-8
Codec ID                    : S_TEXT/UTF8
Codec ID/Info               : UTF-8 Plain Text
Duration                    : 29 min 42 s
Bit rate                    : 80 b/s
Count of elements           : 483
Stream size                 : 17.5 KiB (0%)
Title                       : Chinese Simplified
Language                    : Chinese
Default                     : No
Forced                      : No

Text #4
ID                          : 6
Format                      : UTF-8
Codec ID                    : S_TEXT/UTF8
Codec ID/Info               : UTF-8 Plain Text
Duration                    : 29 min 42 s
Bit rate                    : 80 b/s
Count of elements           : 475
Stream size                 : 17.4 KiB (0%)
Title                       : Chinese Traditional
Language                    : Chinese
Default                     : No
Forced                      : No

Text #5
ID                          : 7
Format                      : UTF-8
Codec ID                    : S_TEXT/UTF8
Codec ID/Info               : UTF-8 Plain Text
Duration                    : 29 min 45 s
Bit rate                    : 72 b/s
Count of elements           : 472
Stream size                 : 15.9 KiB (0%)
Title                       : Croatian
Language                    : Croatian
Default                     : No
Forced                      : No

Text #6
ID                          : 8
Format                      : UTF-8
Codec ID                    : S_TEXT/UTF8
Codec ID/Info               : UTF-8 Plain Text
Duration                    : 29 min 42 s
Bit rate                    : 83 b/s
Count of elements           : 472
Stream size                 : 18.1 KiB (0%)
Title                       : Czech
Language                    : Czech
Default                     : No
Forced                      : No

Text #7
ID                          : 9
Format                      : UTF-8
Codec ID                    : S_TEXT/UTF8
Codec ID/Info               : UTF-8 Plain Text
Duration                    : 29 min 42 s
Bit rate                    : 76 b/s
Count of elements           : 419
Stream size                 : 16.5 KiB (0%)
Title                       : Danish
Language                    : Danish
Default                     : No
Forced                      : No

Text #8
ID                          : 10
Format                      : UTF-8
Codec ID                    : S_TEXT/UTF8
Codec ID/Info               : UTF-8 Plain Text
Duration                    : 29 min 42 s
Bit rate                    : 79 b/s
Count of elements           : 408
Stream size                 : 17.2 KiB (0%)
Title                       : Dutch
Language                    : Dutch
Default                     : No
Forced                      : No

Text #9
ID                          : 11
Format                      : UTF-8
Codec ID                    : S_TEXT/UTF8
Codec ID/Info               : UTF-8 Plain Text
Duration                    : 29 min 35 s
Bit rate                    : 80 b/s
Count of elements           : 474
Stream size                 : 17.5 KiB (0%)
Title                       : Finnish
Language                    : Finnish
Default                     : No
Forced                      : No

Text #10
ID                          : 12
Format                      : UTF-8
Codec ID                    : S_TEXT/UTF8
Codec ID/Info               : UTF-8 Plain Text
Duration                    : 29 min 42 s
Bit rate                    : 79 b/s
Count of elements           : 462
Stream size                 : 17.4 KiB (0%)
Title                       : French
Language                    : French
Default                     : No
Forced                      : No

Text #11
ID                          : 13
Format                      : UTF-8
Codec ID                    : S_TEXT/UTF8
Codec ID/Info               : UTF-8 Plain Text
Duration                    : 29 min 42 s
Bit rate                    : 78 b/s
Count of elements           : 467
Stream size                 : 17.2 KiB (0%)
Title                       : German
Language                    : German
Default                     : No
Forced                      : No

Text #12
ID                          : 14
Format                      : UTF-8
Codec ID                    : S_TEXT/UTF8
Codec ID/Info               : UTF-8 Plain Text
Duration                    : 28 min 45 s
Bit rate                    : 134 b/s
Count of elements           : 462
Stream size                 : 28.3 KiB (0%)
Title                       : Greek
Language                    : Greek
Default                     : No
Forced                      : No

Text #13
ID                          : 15
Format                      : UTF-8
Codec ID                    : S_TEXT/UTF8
Codec ID/Info               : UTF-8 Plain Text
Duration                    : 29 min 48 s
Bit rate                    : 124 b/s
Count of elements           : 458
Stream size                 : 27.1 KiB (0%)
Title                       : Hebrew
Language                    : Hebrew
Default                     : No
Forced                      : No

Text #14
ID                          : 16
Format                      : UTF-8
Codec ID                    : S_TEXT/UTF8
Codec ID/Info               : UTF-8 Plain Text
Duration                    : 29 min 42 s
Bit rate                    : 77 b/s
Count of elements           : 461
Stream size                 : 16.9 KiB (0%)
Title                       : Hungarian
Language                    : Hungarian
Default                     : No
Forced                      : No

Text #15
ID                          : 17
Format                      : UTF-8
Codec ID                    : S_TEXT/UTF8
Codec ID/Info               : UTF-8 Plain Text
Duration                    : 29 min 42 s
Bit rate                    : 76 b/s
Count of elements           : 460
Stream size                 : 16.7 KiB (0%)
Title                       : Indonesian
Language                    : Indonesian
Default                     : No
Forced                      : No

Text #16
ID                          : 18
Format                      : UTF-8
Codec ID                    : S_TEXT/UTF8
Codec ID/Info               : UTF-8 Plain Text
Duration                    : 29 min 42 s
Bit rate                    : 78 b/s
Count of elements           : 453
Stream size                 : 17.1 KiB (0%)
Title                       : Italian
Language                    : Italian
Default                     : No
Forced                      : No

Text #17
ID                          : 19
Format                      : UTF-8
Codec ID                    : S_TEXT/UTF8
Codec ID/Info               : UTF-8 Plain Text
Duration                    : 29 min 42 s
Bit rate                    : 79 b/s
Count of elements           : 396
Stream size                 : 17.3 KiB (0%)
Title                       : Japanese
Language                    : Japanese
Default                     : No
Forced                      : No

Text #18
ID                          : 20
Format                      : UTF-8
Codec ID                    : S_TEXT/UTF8
Codec ID/Info               : UTF-8 Plain Text
Duration                    : 29 min 42 s
Bit rate                    : 104 b/s
Count of elements           : 507
Stream size                 : 22.8 KiB (0%)
Title                       : Korean
Language                    : Korean
Default                     : No
Forced                      : No

Text #19
ID                          : 21
Format                      : UTF-8
Codec ID                    : S_TEXT/UTF8
Codec ID/Info               : UTF-8 Plain Text
Duration                    : 29 min 42 s
Bit rate                    : 71 b/s
Count of elements           : 476
Stream size                 : 15.5 KiB (0%)
Title                       : Malay
Language                    : Malay
Default                     : No
Forced                      : No

Text #20
ID                          : 22
Format                      : UTF-8
Codec ID                    : S_TEXT/UTF8
Codec ID/Info               : UTF-8 Plain Text
Duration                    : 29 min 42 s
Bit rate                    : 73 b/s
Count of elements           : 476
Stream size                 : 16.0 KiB (0%)
Title                       : Norwegian Bokmal
Language                    : Norwegian Bokmal
Default                     : No
Forced                      : No

Text #21
ID                          : 23
Format                      : UTF-8
Codec ID                    : S_TEXT/UTF8
Codec ID/Info               : UTF-8 Plain Text
Duration                    : 29 min 42 s
Bit rate                    : 71 b/s
Count of elements           : 352
Stream size                 : 15.5 KiB (0%)
Title                       : Polish
Language                    : Polish
Default                     : No
Forced                      : No

Text #22
ID                          : 24
Format                      : UTF-8
Codec ID                    : S_TEXT/UTF8
Codec ID/Info               : UTF-8 Plain Text
Duration                    : 29 min 42 s
Bit rate                    : 76 b/s
Count of elements           : 472
Stream size                 : 16.5 KiB (0%)
Title                       : Portuguese
Language                    : Portuguese
Default                     : No
Forced                      : No

Text #23
ID                          : 25
Format                      : UTF-8
Codec ID                    : S_TEXT/UTF8
Codec ID/Info               : UTF-8 Plain Text
Duration                    : 29 min 42 s
Bit rate                    : 82 b/s
Count of elements           : 477
Stream size                 : 17.9 KiB (0%)
Title                       : Brazilian Portuguese
Language                    : Portuguese
Default                     : No
Forced                      : No

Text #24
ID                          : 26
Format                      : UTF-8
Codec ID                    : S_TEXT/UTF8
Codec ID/Info               : UTF-8 Plain Text
Duration                    : 29 min 42 s
Bit rate                    : 87 b/s
Count of elements           : 463
Stream size                 : 19.0 KiB (0%)
Title                       : Romanian
Language                    : Romanian
Default                     : No
Forced                      : No

Text #25
ID                          : 27
Format                      : UTF-8
Codec ID                    : S_TEXT/UTF8
Codec ID/Info               : UTF-8 Plain Text
Duration                    : 29 min 42 s
Bit rate                    : 133 b/s
Count of elements           : 450
Stream size                 : 29.1 KiB (0%)
Title                       : Russian
Language                    : Russian
Default                     : No
Forced                      : No

Text #26
ID                          : 28
Format                      : UTF-8
Codec ID                    : S_TEXT/UTF8
Codec ID/Info               : UTF-8 Plain Text
Duration                    : 29 min 42 s
Bit rate                    : 79 b/s
Count of elements           : 456
Stream size                 : 17.3 KiB (0%)
Title                       : Spanish
Language                    : Spanish
Default                     : No
Forced                      : No

Text #27
ID                          : 29
Format                      : UTF-8
Codec ID                    : S_TEXT/UTF8
Codec ID/Info               : UTF-8 Plain Text
Duration                    : 29 min 42 s
Bit rate                    : 76 b/s
Count of elements           : 469
Stream size                 : 16.7 KiB (0%)
Title                       : European Spanish
Language                    : Spanish
Default                     : No
Forced                      : No

Text #28
ID                          : 30
Format                      : UTF-8
Codec ID                    : S_TEXT/UTF8
Codec ID/Info               : UTF-8 Plain Text
Duration                    : 29 min 42 s
Bit rate                    : 85 b/s
Count of elements           : 476
Stream size                 : 18.7 KiB (0%)
Title                       : Swedish
Language                    : Swedish
Default                     : No
Forced                      : No

Text #29
ID                          : 31
Format                      : UTF-8
Codec ID                    : S_TEXT/UTF8
Codec ID/Info               : UTF-8 Plain Text
Duration                    : 29 min 42 s
Bit rate                    : 207 b/s
Count of elements           : 476
Stream size                 : 45.2 KiB (0%)
Title                       : Thai
Language                    : Thai
Default                     : No
Forced                      : No

Text #30
ID                          : 32
Format                      : UTF-8
Codec ID                    : S_TEXT/UTF8
Codec ID/Info               : UTF-8 Plain Text
Duration                    : 29 min 42 s
Bit rate                    : 78 b/s
Count of elements           : 452
Stream size                 : 17.2 KiB (0%)
Title                       : Turkish
Language                    : Turkish
Default                     : No
Forced                      : No

Text #31
ID                          : 33
Format                      : UTF-8
Codec ID                    : S_TEXT/UTF8
Codec ID/Info               : UTF-8 Plain Text
Duration                    : 29 min 42 s
Bit rate                    : 130 b/s
Count of elements           : 458
Stream size                 : 28.3 KiB (0%)
Title                       : Ukrainian
Language                    : Ukrainian
Default                     : No
Forced                      : No

Text #32
ID                          : 34
Format                      : UTF-8
Codec ID                    : S_TEXT/UTF8
Codec ID/Info               : UTF-8 Plain Text
Duration                    : 29 min 42 s
Bit rate                    : 115 b/s
Count of elements           : 458
Stream size                 : 25.0 KiB (0%)
Title                       : Vietnamese
Language                    : Vietnamese
Default                     : No
Forced                      : No

视频截图

下载地址

The.Standups.S03.1080p.NF.WEBRip.DDP5.1.x264-KHN[rartv] 8.08GB:magnet:?xt=urn:btih:614E906735E2F221468D19EF94D57091EA0F6C2D

The.Standups.S03.WEBRip.x264-ION10 1.75GB:magnet:?xt=urn:btih:A17ECA823DDE0E955C6923843051E11F025584F0

The.Standups.S02.1080p.NF.WEBRip.DDP5.1.x264-PlayWEB[rartv] 8.31GB:magnet:?xt=urn:btih:6B170B83D98F8986F826E454AE2B081C2B294D54

The.Standups.S02.WEBRip.x264-ION10 1.67GB:magnet:?xt=urn:btih:4BB6F47B64274103EF13696338E6C6FDD2B5CD75

The.Standups.S01.1080p.NF.WEBRip.DD5.1.x264-NTb[rartv] 3.37GB:magnet:?xt=urn:btih:D6F943FC2920EFD70C76F51585D0E5A7B06E63E3

The.Standups.S01.WEBRip.x264-ION10 1.61GB:magnet:?xt=urn:btih:D590346121DC8B577B7D37D1B706CA04F5F8B741

Visits: 13

留下评论

LightDark
LightDark