[2021欧美动作][One Shot:一击][中英字幕][BD-MKV-1080P]

%title插图%num

◎译  名 一击 / 一次机会
◎片  名 One Shot
◎年  代 2021
◎产  地 美国
◎类  别 动作
◎语  言 英语
◎上映日期 2021-11-05(美国)
◎IMDb链接 https://www.imdb.com/title/tt14199590/
◎豆瓣评分 6.6/10 (2071人评价)
◎豆瓣链接 https://movie.douban.com/subject/35382383/
◎片  长 96分钟
◎导  演 詹姆斯·纳恩 James Nunn (id:1332050)
◎演  员 斯科特·阿金斯 Scott Adkins (id:1017912)
      阿什丽·格林尼 Ashley Greene (id:1031794)
      瑞恩·菲利普 Ryan Phillippe (id:1040999)
◎标  签 动作 / 枪战 / 美国 / 2021 / 阿金斯 / 犯罪 / 美国电影 / 剧情
◎简  介
  斯科特·阿金斯(《终极斗士4》)与导演詹姆斯·纳恩(《足球流氓3》《毁灭者》)即将合作新电影《一击》(暂译,One Shot)。讲述阿金斯饰演的海豹突击队长率领队员执行秘密任务,试图在一个处于CIA管控下的黑狱中转移一名囚犯。而任务执行当天却遭到了叛乱者的袭击。他们需要在想办法突围的同时营救目标人物。
  本片将采取一镜到底(One single continuous take)的形式完成,并计划于3月9日开始制作。

视频信息

General
Unique ID                   : 218105933758228245495794382761155609765 (0xA415ACC56ADD514C0FEFE417E3DBC4A5)
Complete name               : E:\DSfile\[ 高清电影之家 mkvhome.com ]一击[中文字幕].One.Shot.2021.BluRay.1080p.DTS-HD.MA.5.1.x264-iii@MKVHome 10.65GB\One.Shot.2021.BluRay.1080p.DTS-HD.MA.5.1.x264-iii@MKVHome.mkv
Format                      : Matroska
Format version              : Version 4
File size                   : 10.6 GiB
Duration                    : 1 h 36 min
Overall bit rate mode       : Variable
Overall bit rate            : 15.7 Mb/s
Movie name                  : One Shot
Encoded date                : UTC 2021-12-29 23:58:23
Writing application         : mkvmerge v59.0.0 ('Shining Star') 64-bit
Writing library             : libebml v1.4.2 + libmatroska v1.6.4
Cover                       : Yes
Attachments                 : Cover.jpg

Video
ID                          : 1
Format                      : AVC
Format/Info                 : Advanced Video Codec
Format profile              : High@L4.1
Format settings             : CABAC / 4 Ref Frames
Format settings, CABAC      : Yes
Format settings, Reference  : 4 frames
Codec ID                    : V_MPEG4/ISO/AVC
Duration                    : 1 h 36 min
Bit rate                    : 11.9 Mb/s
Width                       : 1 920 pixels
Height                      : 960 pixels
Display aspect ratio        : 2.000
Frame rate mode             : Constant
Frame rate                  : 23.976 (24000/1001) FPS
Color space                 : YUV
Chroma subsampling          : 4:2:0
Bit depth                   : 8 bits
Scan type                   : Progressive
Bits/(Pixel*Frame)          : 0.269
Stream size                 : 8.02 GiB (75%)
Writing library             : x264 core 142 r2431+42 c69a006 tMod [8-bit@4:2:0 X86_64]
Encoding settings           : cabac=1 / ref=4 / deblock=1:-3:-3 / analyse=0x3:0x113 / me=umh / subme=10 / psy=1 / fade_compensate=0.00 / psy_rd=1.00:0.05 / mixed_ref=1 / me_range=48 / chroma_me=1 / trellis=2 / 8x8dct=1 / cqm=0 / deadzone=21,11 / fast_pskip=0 / chroma_qp_offset=-2 / threads=72 / lookahead_threads=7 / sliced_threads=0 / nr=0 / decimate=1 / interlaced=0 / bluray_compat=0 / constrained_intra=0 / fgo=0 / bframes=8 / b_pyramid=2 / b_adapt=2 / b_bias=0 / direct=3 / weightb=1 / open_gop=0 / weightp=2 / keyint=250 / keyint_min=23 / scenecut=40 / intra_refresh=0 / rc_lookahead=40 / rc=crf / mbtree=0 / crf=17.6000 / qcomp=0.60 / qpmin=0:0:0 / qpmax=69:69:69 / qpstep=4 / vbv_maxrate=40000 / vbv_bufsize=30000 / crf_max=0.0 / nal_hrd=none / filler=0 / ip_ratio=1.40 / pb_ratio=1.30 / aq=3:0.80 / aq-sensitivity=10.00 / aq-factor=1.00:1.00:1.00 / aq2=0 / aq3=0
Default                     : Yes
Forced                      : No
Color range                 : Limited
Matrix coefficients         : BT.709

Audio
ID                          : 2
Format                      : DTS XLL
Format/Info                 : Digital Theater Systems
Commercial name             : DTS-HD Master Audio
Codec ID                    : A_DTS
Duration                    : 1 h 36 min
Bit rate mode               : Variable
Bit rate                    : 3 751 kb/s
Channel(s)                  : 6 channels
Channel layout              : C L R Ls Rs LFE
Sampling rate               : 48.0 kHz
Frame rate                  : 93.750 FPS (512 SPF)
Bit depth                   : 24 bits
Compression mode            : Lossless
Stream size                 : 2.54 GiB (24%)
Language                    : English
Default                     : Yes
Forced                      : No

Text #1
ID                          : 3
Format                      : PGS
Muxing mode                 : zlib
Codec ID                    : S_HDMV/PGS
Codec ID/Info               : Picture based subtitle format used on BDs/HD-DVDs
Duration                    : 1 h 32 min
Bit rate                    : 61.8 kb/s
Count of elements           : 2508
Stream size                 : 40.7 MiB (0%)
Language                    : English
Default                     : Yes
Forced                      : No

Text #2
ID                          : 4
Format                      : PGS
Muxing mode                 : zlib
Codec ID                    : S_HDMV/PGS
Codec ID/Info               : Picture based subtitle format used on BDs/HD-DVDs
Duration                    : 1 h 31 min
Bit rate                    : 32.6 kb/s
Count of elements           : 1836
Stream size                 : 21.3 MiB (0%)
Title                       : 简体中字
Language                    : Chinese
Default                     : Yes
Forced                      : No

Text #3
ID                          : 5
Format                      : PGS
Muxing mode                 : zlib
Codec ID                    : S_HDMV/PGS
Codec ID/Info               : Picture based subtitle format used on BDs/HD-DVDs
Duration                    : 1 h 31 min
Bit rate                    : 33.3 kb/s
Count of elements           : 1836
Stream size                 : 21.8 MiB (0%)
Title                       : 繁体中字
Language                    : Chinese
Default                     : Yes
Forced                      : No

Text #4
ID                          : 6
Format                      : PGS
Muxing mode                 : zlib
Codec ID                    : S_HDMV/PGS
Codec ID/Info               : Picture based subtitle format used on BDs/HD-DVDs
Duration                    : 1 h 31 min
Bit rate                    : 51.3 kb/s
Count of elements           : 1836
Stream size                 : 33.6 MiB (0%)
Title                       : 简英双语
Language                    : Chinese
Default                     : Yes
Forced                      : No

Text #5
ID                          : 7
Format                      : PGS
Muxing mode                 : zlib
Codec ID                    : S_HDMV/PGS
Codec ID/Info               : Picture based subtitle format used on BDs/HD-DVDs
Duration                    : 1 h 31 min
Bit rate                    : 52.0 kb/s
Count of elements           : 1836
Stream size                 : 34.1 MiB (0%)
Title                       : 繁英双语
Language                    : Chinese
Default                     : Yes
Forced                      : No

Text #6
ID                          : 8
Format                      : UTF-8
Codec ID                    : S_TEXT/UTF8
Codec ID/Info               : UTF-8 Plain Text
Duration                    : 1 h 31 min
Bit rate                    : 45 b/s
Count of elements           : 1089
Stream size                 : 30.6 KiB (0%)
Title                       : 简体中字
Language                    : Chinese
Default                     : Yes
Forced                      : No

Text #7
ID                          : 9
Format                      : UTF-8
Codec ID                    : S_TEXT/UTF8
Codec ID/Info               : UTF-8 Plain Text
Duration                    : 1 h 31 min
Bit rate                    : 45 b/s
Count of elements           : 1089
Stream size                 : 30.6 KiB (0%)
Title                       : 繁体中字
Language                    : Chinese
Default                     : Yes
Forced                      : No

Menu
00:00:00.000                : :第 01 章
00:08:51.448                : :第 02 章
00:16:17.143                : :第 03 章
00:24:00.981                : :第 04 章
00:32:01.336                : :第 05 章
00:40:35.558                : :第 06 章
00:47:34.143                : :第 07 章
00:55:21.902                : :第 08 章
01:05:48.027                : :第 09 章
01:16:46.852                : :第 10 章
01:23:59.409                : :第 11 章
01:33:30.063                : :第 12 章

视频截图

下载地址

一击[中文字幕].One.Shot.2021.BluRay.1080p.DTS-HD.MA.5.1.x264-iii@MKVHome 10.65GB:magnet:?xt=urn:btih:EDE9E232A4AE157BE2EBB5F5BD2CB32C62377261

Visits: 25

留下评论

LightDark
LightDark