[2021俄罗斯战争][Небо:天空][简繁字幕][WEB-MKV-1080P]

%title插图%num

◎译  名 天空/使命天空/Mission «Sky»/Nebo
◎片  名 Небо
◎年  代 2021
◎产  地 俄罗斯
◎类  别 剧情/传记/战争
◎语  言 俄语
◎上映日期 2021-11-18(俄罗斯)
◎IMDb评分  5.8/10 from 136 users
◎IMDb链接  https://www.imdb.com/title/tt15815090/
◎豆瓣评分 6.9/10 from 693 users
◎豆瓣链接 https://douban.com/subject/35573989/
◎片  长 110分钟
◎导  演 伊戈尔·科皮洛夫 Igor Kopylov
◎编  剧 伊戈尔·科皮洛夫 Igor Kopylov
◎主  演 伊凡·巴塔列夫 Ivan Batarev
       亚历山大·布哈罗夫 Aleksandr Bukharov
       阿拉·伊明兹瓦 Alla Emintseva
       安德烈·弗洛洛夫 Andrey Frolov
       瑟吉·古班诺夫 Sergey Gubanov
       阿纳托利·科特 Anatoliy Kot
       尼古拉·科扎克 Nikolay Kozak
       玛丽亚·米罗诺娃 Mariya Mironova
       格里戈利·涅克拉索夫 Grigori Nekrasov
       伊利亚·诺斯科夫 Ilya Noskov
◎标  签 俄罗斯 | 战争 | 现代战争 | 军事 | 俄军 | 2021 | 电影 | 叙利亚
◎简  介

  2015年,俄罗斯空天军远征叙利亚,在叙利亚赫梅米姆空军基地,飞行员索什尼科夫中校和领航员穆拉维约夫上尉在赫梅米姆军事基地相识。在一次飞行侦察任务期间,索什尼科夫驾驶的战斗轰炸机被土耳其战斗机击落。这一轰动性事件被世界所有媒体报道,整个俄罗斯都在关注救援行动的进展。战机被击落之后,奥列格·索什尼科夫和康斯坦丁·穆拉维约夫双双成功弹射,但他们二人中注定只有一人能活着回家。

视频信息

General
Unique ID                   : 21097812596776116133491823822299741655 (0xFDF4A78B142404FA996E4611BB43DD7)
Complete name               : E:\DSfile\[天空]Небо.2021.WEB-DL.1080p.H264.AAC.CHS.BOBO\[天空]Небо.2021.WEB-DL.1080p.H264.AAC.CHS.BOBO.mkv
Format                      : Matroska
Format version              : Version 4
File size                   : 2.82 GiB
Duration                    : 2 h 6 min
Overall bit rate            : 3 207 kb/s
Encoded date                : UTC 2021-12-30 12:10:22
Writing application         : mkvmerge v60.0.0 ('Are We Copies?') 64-bit
Writing library             : libebml v1.4.2 + libmatroska v1.6.4

Video
ID                          : 1
Format                      : AVC
Format/Info                 : Advanced Video Codec
Format profile              : High@L4.1
Format settings             : CABAC / 4 Ref Frames
Format settings, CABAC      : Yes
Format settings, Reference  : 4 frames
Codec ID                    : V_MPEG4/ISO/AVC
Duration                    : 2 h 6 min
Bit rate                    : 2 992 kb/s
Width                       : 1 920 pixels
Height                      : 1 080 pixels
Display aspect ratio        : 16:9
Frame rate mode             : Constant
Frame rate                  : 25.000 FPS
Color space                 : YUV
Chroma subsampling          : 4:2:0
Bit depth                   : 8 bits
Scan type                   : Interlaced
Scan type, store method     : Separated fields
Scan order                  : Top Field First
Bits/(Pixel*Frame)          : 0.058
Stream size                 : 2.63 GiB (93%)
Language                    : English
Default                     : Yes
Forced                      : No
Color range                 : Limited
Color primaries             : BT.709
Transfer characteristics    : BT.709
Matrix coefficients         : BT.709

Audio
ID                          : 2
Format                      : AC-3
Format/Info                 : Audio Coding 3
Commercial name             : Dolby Digital
Codec ID                    : A_AC3
Duration                    : 2 h 6 min
Bit rate mode               : Constant
Bit rate                    : 192 kb/s
Channel(s)                  : 2 channels
Channel layout              : L R
Sampling rate               : 48.0 kHz
Frame rate                  : 31.250 FPS (1536 SPF)
Compression mode            : Lossy
Stream size                 : 173 MiB (6%)
Language                    : Russian
Service kind                : Complete Main
Default                     : Yes
Forced                      : No

Text #1
ID                          : 3
Format                      : PGS
Muxing mode                 : zlib
Codec ID                    : S_HDMV/PGS
Codec ID/Info               : Picture based subtitle format used on BDs/HD-DVDs
Duration                    : 2 h 1 min
Bit rate                    : 21.4 kb/s
Count of elements           : 2266
Stream size                 : 18.5 MiB (1%)
Title                       : SUP简中
Language                    : Chinese
Default                     : Yes
Forced                      : No

Text #2
ID                          : 4
Format                      : PGS
Muxing mode                 : zlib
Codec ID                    : S_HDMV/PGS
Codec ID/Info               : Picture based subtitle format used on BDs/HD-DVDs
Duration                    : 2 h 1 min
Bit rate                    : 22.0 kb/s
Count of elements           : 2266
Stream size                 : 19.1 MiB (1%)
Title                       : SUP繁中
Language                    : Chinese
Default                     : No
Forced                      : No

Text #3
ID                          : 5
Format                      : UTF-8
Codec ID                    : S_TEXT/UTF8
Codec ID/Info               : UTF-8 Plain Text
Duration                    : 2 h 1 min
Bit rate                    : 44 b/s
Count of elements           : 1128
Stream size                 : 39.5 KiB (0%)
Title                       : SRT简中
Language                    : Chinese
Default                     : No
Forced                      : No

Text #4
ID                          : 6
Format                      : UTF-8
Codec ID                    : S_TEXT/UTF8
Codec ID/Info               : UTF-8 Plain Text
Duration                    : 2 h 1 min
Bit rate                    : 44 b/s
Count of elements           : 1128
Stream size                 : 39.5 KiB (0%)
Title                       : SRT繁中
Language                    : Chinese
Default                     : No
Forced                      : No

视频截图

下载地址

[天空]Небо.2021.WEB-DL.1080p.H264.AAC.CHS.BOBO 2.82GB:magnet:?xt=urn:btih:8229E359D30F3DBDD29C30CD8B6A29591E506E8D

Visits: 30

留下评论

LightDark
LightDark