[2021美国纪录][Maradona, sueño bendito:马拉多纳:庇佑之梦 第一季][官译多国字幕][WEBRip-MKV-2160P(4k)]

%title插图%num

◎译  名 马拉多纳:庇佑之梦 第一季
◎片  名 Maradona, sueño bendito
◎年  代 2021
◎产  地 美国
◎类  别 纪录片/传记
◎语  言 英语
◎上映日期 2021-10-29(美国)
◎IMDB链接 https://www.imdb.com/title/tt8431322/
◎豆瓣评分 /10 from 0 users
◎豆瓣链接 https://douban.com/subject/30331715/
◎主  演 尼古拉斯·戈施密特 Nicolás Goldschmidt
       纳萨雷诺·卡西奥 Nazareno Casero
       胡安·帕洛米诺 Juan Palomino
       伦纳德·昆兹 Leonard Kunz
       朱丽叶塔·卡迪纳利 Julieta Cardinali
       丽塔·科尔泰塞 Rita Cortese
       尼古拉斯·伏塔多 Nicolás Furtado
       达里奥·格兰迪内蒂 Darío Grandinetti
       皮特·蓝萨尼 Peter Lanzani
       费尔南·米拉斯 Fernán Mirás
       梅赛黛斯·莫朗 Mercedes Morán
       弗朗西斯科·雷耶斯 Francisco Reyes
       克劳迪奥·里西 Claudio Rissi
       赫拉多·罗马诺 Gerardo Romano
       莱昂纳多·斯巴拉格利亚 Leonardo Sbaraglia
       Federico D’Elía Federico D’Elía
       Marcelo Mazzarello Marcelo Mazzarello
◎标  签 马拉多纳 | 足球 | 2021等评分 | 2020纳!
◎简  介

  亚马逊将推出一代球王马拉多纳的传记剧集《马拉多纳:庇佑之梦》(Maradona: Blessed Dream,暂译),近日选出了饰马拉多纳的演员们:Nicolas Goldschmidt(《弄虚作假》)、Nazareno Casero(《布宜诺斯艾利斯1977》)、Juan Palomino(《氪星石》),依次饰演他的青年、壮年、中老年“黑暗”时期,聚焦其青涩岁月、俱乐部生涯、作为阿根廷足球队队长征战的日子,他那传奇又备受争议的形象。第1季将在阿根廷开拍,随即去乌拉圭、西班牙、意大利和墨西哥拍摄。

视频信息

General
Unique ID                   : 35754653792179711065698734601809473632 (0x1AE61888E6DCA5B336A0335476E4B060)
Complete name               : X:\下载\Maradona.Blessed.Dream.S01.SPANISH.2160p.AMZN.WEB-DL.x265.10bit.HDR10Plus.DDP5.1-182K[rartv]\Maradona.Blessed.Dream.S01E01.2160p.AMZN.WEB-DL.DDP5.1.HDR.H.265-182K.mkv
Format                      : Matroska
Format version              : Version 4
File size                   : 6.06 GiB
Duration                    : 56 min 51 s
Overall bit rate            : 15.3 Mb/s
Encoded date                : UTC 2021-11-30 22:11:19
Writing application         : mkvmerge v62.0.0 ('Apollo') 64-bit
Writing library             : libebml v1.4.2 + libmatroska v1.6.4

Video
ID                          : 1
Format                      : HEVC
Format/Info                 : High Efficiency Video Coding
Format profile              : Main 10@L5@Main
HDR format                  : SMPTE ST 2094 App 4, Version 1, HDR10+ Profile B compatible
Codec ID                    : V_MPEGH/ISO/HEVC
Duration                    : 56 min 51 s
Bit rate                    : 14.6 Mb/s
Width                       : 3 840 pixels
Height                      : 2 160 pixels
Display aspect ratio        : 16:9
Frame rate mode             : Constant
Frame rate                  : 23.976 (24000/1001) FPS
Color space                 : YUV
Chroma subsampling          : 4:2:0
Bit depth                   : 10 bits
Bits/(Pixel*Frame)          : 0.074
Stream size                 : 5.81 GiB (96%)
Default                     : Yes
Forced                      : No
Color range                 : Limited
Color primaries             : BT.2020
Transfer characteristics    : PQ
Matrix coefficients         : BT.2020 non-constant
Mastering display color pri : Display P3
Mastering display luminance : min: 0.0001 cd/m2, max: 1000 cd/m2
Maximum Content Light Level : 1011 cd/m2
Maximum Frame-Average Light : 611 cd/m2

Audio
ID                          : 2
Format                      : E-AC-3
Format/Info                 : Enhanced AC-3
Commercial name             : Dolby Digital Plus
Codec ID                    : A_EAC3
Duration                    : 56 min 47 s
Bit rate mode               : Constant
Bit rate                    : 640 kb/s
Channel(s)                  : 6 channels
Channel layout              : L R C LFE Ls Rs
Sampling rate               : 48.0 kHz
Frame rate                  : 31.250 FPS (1536 SPF)
Compression mode            : Lossy
Stream size                 : 260 MiB (4%)
Title                       : Spanish
Language                    : Spanish
Service kind                : Complete Main
Default                     : Yes
Forced                      : No

Text #1
ID                          : 3
Format                      : UTF-8
Codec ID                    : S_TEXT/UTF8
Codec ID/Info               : UTF-8 Plain Text
Duration                    : 54 min 11 s
Bit rate                    : 60 b/s
Count of elements           : 702
Stream size                 : 23.9 KiB (0%)
Language                    : English
Default                     : Yes
Forced                      : No

Text #2
ID                          : 4
Format                      : UTF-8
Codec ID                    : S_TEXT/UTF8
Codec ID/Info               : UTF-8 Plain Text
Duration                    : 54 min 4 s
Bit rate                    : 76 b/s
Count of elements           : 907
Stream size                 : 30.5 KiB (0%)
Language                    : Spanish
Default                     : No
Forced                      : No

Text #3
ID                          : 5
Format                      : UTF-8
Codec ID                    : S_TEXT/UTF8
Codec ID/Info               : UTF-8 Plain Text
Duration                    : 55 min 44 s
Bit rate                    : 55 b/s
Count of elements           : 700
Stream size                 : 22.7 KiB (0%)
Title                       : Brazilian
Language                    : Portuguese
Default                     : No
Forced                      : No

Text #4
ID                          : 6
Format                      : UTF-8
Codec ID                    : S_TEXT/UTF8
Codec ID/Info               : UTF-8 Plain Text
Duration                    : 55 min 46 s
Bit rate                    : 62 b/s
Count of elements           : 613
Stream size                 : 25.6 KiB (0%)
Language                    : German
Default                     : No
Forced                      : No

Text #5
ID                          : 7
Format                      : UTF-8
Codec ID                    : S_TEXT/UTF8
Codec ID/Info               : UTF-8 Plain Text
Duration                    : 55 min 44 s
Bit rate                    : 57 b/s
Count of elements           : 706
Stream size                 : 23.3 KiB (0%)
Language                    : French
Default                     : No
Forced                      : No

Text #6
ID                          : 8
Format                      : UTF-8
Codec ID                    : S_TEXT/UTF8
Codec ID/Info               : UTF-8 Plain Text
Duration                    : 55 min 9 s
Bit rate                    : 53 b/s
Count of elements           : 710
Stream size                 : 21.8 KiB (0%)
Title                       : Simplified
Language                    : Chinese
Default                     : No
Forced                      : No

Text #7
ID                          : 9
Format                      : UTF-8
Codec ID                    : S_TEXT/UTF8
Codec ID/Info               : UTF-8 Plain Text
Duration                    : 55 min 9 s
Bit rate                    : 57 b/s
Count of elements           : 709
Stream size                 : 23.1 KiB (0%)
Title                       : Traditional
Language                    : Chinese
Default                     : No
Forced                      : No

Text #8
ID                          : 10
Format                      : UTF-8
Codec ID                    : S_TEXT/UTF8
Codec ID/Info               : UTF-8 Plain Text
Duration                    : 55 min 9 s
Bit rate                    : 102 b/s
Count of elements           : 710
Stream size                 : 41.2 KiB (0%)
Language                    : Arabic
Default                     : No
Forced                      : No

Text #9
ID                          : 11
Format                      : UTF-8
Codec ID                    : S_TEXT/UTF8
Codec ID/Info               : UTF-8 Plain Text
Duration                    : 55 min 44 s
Bit rate                    : 139 b/s
Count of elements           : 706
Stream size                 : 57.0 KiB (0%)
Language                    : Bengali
Default                     : No
Forced                      : No

Text #10
ID                          : 12
Format                      : UTF-8
Codec ID                    : S_TEXT/UTF8
Codec ID/Info               : UTF-8 Plain Text
Duration                    : 55 min 44 s
Bit rate                    : 52 b/s
Count of elements           : 701
Stream size                 : 21.5 KiB (0%)
Language                    : Czech
Default                     : No
Forced                      : No

Text #11
ID                          : 13
Format                      : UTF-8
Codec ID                    : S_TEXT/UTF8
Codec ID/Info               : UTF-8 Plain Text
Duration                    : 55 min 44 s
Bit rate                    : 55 b/s
Count of elements           : 701
Stream size                 : 22.8 KiB (0%)
Language                    : Danish
Default                     : No
Forced                      : No

Text #12
ID                          : 14
Format                      : UTF-8
Codec ID                    : S_TEXT/UTF8
Codec ID/Info               : UTF-8 Plain Text
Duration                    : 55 min 44 s
Bit rate                    : 56 b/s
Count of elements           : 706
Stream size                 : 23.1 KiB (0%)
Language                    : Dutch
Default                     : No
Forced                      : No

Text #13
ID                          : 15
Format                      : UTF-8
Codec ID                    : S_TEXT/UTF8
Codec ID/Info               : UTF-8 Plain Text
Duration                    : 55 min 44 s
Bit rate                    : 63 b/s
Count of elements           : 704
Stream size                 : 25.7 KiB (0%)
Language                    : fil
Default                     : No
Forced                      : No

Text #14
ID                          : 16
Format                      : UTF-8
Codec ID                    : S_TEXT/UTF8
Codec ID/Info               : UTF-8 Plain Text
Duration                    : 55 min 9 s
Bit rate                    : 55 b/s
Count of elements           : 705
Stream size                 : 22.5 KiB (0%)
Language                    : Finnish
Default                     : No
Forced                      : No

Text #15
ID                          : 17
Format                      : UTF-8
Codec ID                    : S_TEXT/UTF8
Codec ID/Info               : UTF-8 Plain Text
Duration                    : 55 min 44 s
Bit rate                    : 109 b/s
Count of elements           : 710
Stream size                 : 44.5 KiB (0%)
Language                    : Greek
Default                     : No
Forced                      : No

Text #16
ID                          : 18
Format                      : UTF-8
Codec ID                    : S_TEXT/UTF8
Codec ID/Info               : UTF-8 Plain Text
Duration                    : 55 min 9 s
Bit rate                    : 91 b/s
Count of elements           : 710
Stream size                 : 37.0 KiB (0%)
Language                    : Hebrew
Default                     : No
Forced                      : No

Text #17
ID                          : 19
Format                      : UTF-8
Codec ID                    : S_TEXT/UTF8
Codec ID/Info               : UTF-8 Plain Text
Duration                    : 55 min 44 s
Bit rate                    : 144 b/s
Count of elements           : 710
Stream size                 : 58.9 KiB (0%)
Language                    : Hindi
Default                     : No
Forced                      : No

Text #18
ID                          : 20
Format                      : UTF-8
Codec ID                    : S_TEXT/UTF8
Codec ID/Info               : UTF-8 Plain Text
Duration                    : 55 min 44 s
Bit rate                    : 59 b/s
Count of elements           : 702
Stream size                 : 24.1 KiB (0%)
Language                    : Hungarian
Default                     : No
Forced                      : No

Text #19
ID                          : 21
Format                      : UTF-8
Codec ID                    : S_TEXT/UTF8
Codec ID/Info               : UTF-8 Plain Text
Duration                    : 55 min 44 s
Bit rate                    : 55 b/s
Count of elements           : 704
Stream size                 : 22.7 KiB (0%)
Language                    : Indonesian
Default                     : No
Forced                      : No

Text #20
ID                          : 22
Format                      : UTF-8
Codec ID                    : S_TEXT/UTF8
Codec ID/Info               : UTF-8 Plain Text
Duration                    : 55 min 44 s
Bit rate                    : 56 b/s
Count of elements           : 704
Stream size                 : 23.0 KiB (0%)
Language                    : Italian
Default                     : No
Forced                      : No

Text #21
ID                          : 23
Format                      : UTF-8
Codec ID                    : S_TEXT/UTF8
Codec ID/Info               : UTF-8 Plain Text
Duration                    : 55 min 49 s
Bit rate                    : 51 b/s
Count of elements           : 748
Stream size                 : 21.0 KiB (0%)
Language                    : Japanese
Default                     : No
Forced                      : No

Text #22
ID                          : 24
Format                      : UTF-8
Codec ID                    : S_TEXT/UTF8
Codec ID/Info               : UTF-8 Plain Text
Duration                    : 55 min 44 s
Bit rate                    : 58 b/s
Count of elements           : 710
Stream size                 : 23.8 KiB (0%)
Language                    : Korean
Default                     : No
Forced                      : No

Text #23
ID                          : 25
Format                      : UTF-8
Codec ID                    : S_TEXT/UTF8
Codec ID/Info               : UTF-8 Plain Text
Duration                    : 55 min 44 s
Bit rate                    : 58 b/s
Count of elements           : 700
Stream size                 : 23.9 KiB (0%)
Language                    : Malay
Default                     : No
Forced                      : No

Text #24
ID                          : 26
Format                      : UTF-8
Codec ID                    : S_TEXT/UTF8
Codec ID/Info               : UTF-8 Plain Text
Duration                    : 55 min 9 s
Bit rate                    : 56 b/s
Count of elements           : 704
Stream size                 : 22.8 KiB (0%)
Language                    : Norwegian
Default                     : No
Forced                      : No

Text #25
ID                          : 27
Format                      : UTF-8
Codec ID                    : S_TEXT/UTF8
Codec ID/Info               : UTF-8 Plain Text
Duration                    : 55 min 44 s
Bit rate                    : 51 b/s
Count of elements           : 706
Stream size                 : 21.1 KiB (0%)
Language                    : Polish
Default                     : No
Forced                      : No

Text #26
ID                          : 28
Format                      : UTF-8
Codec ID                    : S_TEXT/UTF8
Codec ID/Info               : UTF-8 Plain Text
Duration                    : 55 min 9 s
Bit rate                    : 58 b/s
Count of elements           : 704
Stream size                 : 23.6 KiB (0%)
Language                    : Portuguese
Default                     : No
Forced                      : No

Text #27
ID                          : 29
Format                      : UTF-8
Codec ID                    : S_TEXT/UTF8
Codec ID/Info               : UTF-8 Plain Text
Duration                    : 55 min 44 s
Bit rate                    : 60 b/s
Count of elements           : 704
Stream size                 : 24.6 KiB (0%)
Language                    : Romanian
Default                     : No
Forced                      : No

Text #28
ID                          : 30
Format                      : UTF-8
Codec ID                    : S_TEXT/UTF8
Codec ID/Info               : UTF-8 Plain Text
Duration                    : 55 min 9 s
Bit rate                    : 95 b/s
Count of elements           : 710
Stream size                 : 38.7 KiB (0%)
Language                    : Russian
Default                     : No
Forced                      : No

Text #29
ID                          : 31
Format                      : UTF-8
Codec ID                    : S_TEXT/UTF8
Codec ID/Info               : UTF-8 Plain Text
Duration                    : 55 min 9 s
Bit rate                    : 57 b/s
Count of elements           : 704
Stream size                 : 23.3 KiB (0%)
Language                    : Swedish
Default                     : No
Forced                      : No

Text #30
ID                          : 32
Format                      : UTF-8
Codec ID                    : S_TEXT/UTF8
Codec ID/Info               : UTF-8 Plain Text
Duration                    : 55 min 44 s
Bit rate                    : 144 b/s
Count of elements           : 710
Stream size                 : 58.9 KiB (0%)
Language                    : Thai
Default                     : No
Forced                      : No

Text #31
ID                          : 33
Format                      : UTF-8
Codec ID                    : S_TEXT/UTF8
Codec ID/Info               : UTF-8 Plain Text
Duration                    : 55 min 9 s
Bit rate                    : 58 b/s
Count of elements           : 707
Stream size                 : 23.8 KiB (0%)
Language                    : Turkish
Default                     : No
Forced                      : No

视频截图

下载地址

Maradona.Blessed.Dream.S01.SPANISH.2160p.AMZN.WEB-DL.x265.10bit.HDR10Plus.DDP5.1-182K[rartv] 65.67GB:magnet:?xt=urn:btih:4A48179511E8727BED82BA7527987793234E2D0D

Maradona.Blessed.Dream.S01.SPANISH.1080p.WEBRip.x265-RARBG 9.62GB:magnet:?xt=urn:btih:DD19647B12B15D0E7957398FD6EB2F00E15C3E42

Maradona.Blessed.Dream.S01.SPANISH.1080p.AMZN.WEBRip.DDP5.1.x264-MIXED[rartv] 41.07GB:magnet:?xt=urn:btih:9A32EDFBB6391332894B274B44868FF9568346B2

Maradona.Blessed.Dream.S01.SPANISH.720p.AMZN.WEBRip.DDP5.1.x264-MIXED[rartv] 18.01GB:magnet:?xt=urn:btih:B75D7595CAB56FB27D4A4BF005481A28E3ACB79B

Visits: 6

留下评论

LightDark
LightDark