[2021日本动画] [鬼滅の刃 無限列車編:鬼灭之刃 无限列车篇 TV版][全7集][日语中字][WebRip-MKV-1080P]

%title插图%num

◎译  名 鬼灭之刃 无限列车篇/鬼灭之刃 无限列车篇TV版
◎片  名 鬼滅の刃 無限列車編
◎年  代 2021
◎产  地 日本
◎类  别 动画/奇幻
◎语  言 日语
◎上映日期 2021-10-10(日本)
◎IMDB链接 https://www.imdb.com/title/tt14617256/
◎豆瓣评分 9.2/10 from 11199 users
◎豆瓣链接 https://douban.com/subject/35620761/
◎集  数 7
◎片  长 26分钟
◎导  演 外崎春雄 Sotozaki Haruo
◎主  演 花江夏树 Natsuki Hanae
       鬼头明里 Akari Kitō
       下野纮 Hiro Shimono
       松冈祯丞 Yoshitsugu Matsuoka
       日野聪 Satoshi Hino
       平川大辅 Daisuke Hirakawa
       石田彰 Akira Ishida
       早见沙织 Saori Hayami
◎标  签 鬼灭之刃 | 动漫 | 炎柱 | 日本动画 | 日本 | 动画 | 2021 | 喜欢
◎简  介 

  在蝴蝶屋结束修业之后,炭治郎等人抵达了下一任务的地方“无限列车”。在那里,短时间内有四十多人失踪。带着祢豆子的炭治郎与善逸、伊之助一行人,与鬼杀队的最强剑士“柱”之一的炎柱炼狱杏寿郎会合了。在通向黑暗的无限列车中,他们将面对潜伏在此的鬼。

视频信息

General
Unique ID                   : 316413438918982104310426641070891408307 (0xEE0B02FD98759FB6DC40C9554F2B1BB3)
Complete name               : E:\[CoolComic404][Kimetsu no Yaiba - Mugen Ressha-Hen][01-07][1080P][WebRip][CHS_JPN][HEVC-10bit AAC][MKV]\[CoolComic404][Kimetsu no Yaiba - Mugen Ressha-Hen][07][1080P][WebRip][CHS_JPN][HEVC-10bit AAC].mkv
Format                      : Matroska
Format version              : Version 4
File size                   : 480 MiB
Duration                    : 26 min 30 s
Overall bit rate            : 2 534 kb/s
Encoded date                : UTC 2021-12-03 13:12:49
Writing application         : mkvmerge v62.0.0 ('Apollo') 64-bit
Writing library             : libebml v1.4.2 + libmatroska v1.6.4
Cover                       : Yes
Attachments                 : cover.jpg

Video
ID                          : 1
Format                      : HEVC
Format/Info                 : High Efficiency Video Coding
Format profile              : Main 10@L4@Main
Codec ID                    : V_MPEGH/ISO/HEVC
Duration                    : 26 min 29 s
Bit rate                    : 2 396 kb/s
Width                       : 1 920 pixels
Height                      : 1 080 pixels
Display aspect ratio        : 16:9
Frame rate mode             : Constant
Frame rate                  : 23.976 (24000/1001) FPS
Color space                 : YUV
Chroma subsampling          : 4:2:0
Bit depth                   : 10 bits
Bits/(Pixel*Frame)          : 0.048
Stream size                 : 454 MiB (95%)
Writing library             : x265 3.5+2-g2b25c9ba0+45:[Windows][GCC 10.2.0][64 bit] Yuuki 10bit
Encoding settings           : rc=crf / crf=18.0000 / qcomp=0.65 / qpstep=4 / stats-write=0 / stats-read=0 / no-lossless / no-cu-lossless / aq-mode=2 / aq-strength=0.90 / cbqpoffs=-2 / crqpoffs=-2 / ipratio=1.40 / pbratio=1.30 / psy-rd=1.00 / psy-rdoq=1.00 / deblock=0:0 / ref=4 / limit-refs=3 / limit-modes / bframes=6 / b-adapt=2 / bframe-bias=0 / b-pyramid / no-b-intra / weightp / no-weightb / min-keyint=1 / max-keyint=240 / rc-lookahead=70 / gop-lookahead=0 / scenecut=40 / hist-scenecut=0 / radl=0 / max-cu-size=64 / min-cu-size=8 / me=3 / subme=3 / merange=57 / rdoq-level=2 / rd=4 / rdpenalty=0 / dynamic-rd=0.00 / no-rd-refine / ----- / cutree / sao / rect / no-amp / open-gop / wpp / no-pmode / no-pme / no-psnr / no-ssim / nr-intra=0 / nr-inter=0 / no-constrained-intra / strong-intra-smoothing / max-tu-size=32 / tu-inter-depth=1 / tu-intra-depth=1 / limit-tu=0 / qg-size=8 / qpmax=69 / qpmin=0 / ----- / cpuid=1111039 / frame-threads=4 / numa-pools=16 / log-level=2 / input-csp=1 / input-res=1920x1080 / interlace=0 / level-idc=0 / high-tier=1 / uhd-bd=0 / no-allow-non-conformance / no-repeat-headers / no-aud / no-hrd / info / hash=0 / no-temporal-layers / lookahead-slices=4 / no-splice / no-intra-refresh / no-ssim-rd / signhide / no-tskip / max-merge=3 / temporal-mvp / no-frame-dup / no-hme / no-analyze-src-pics / no-sao-non-deblock / selective-sao=4 / no-early-skip / rskip / no-fast-intra / no-tskip-fast / no-splitrd-skip / zone-count=0 / no-strict-cbr / no-rc-grain / no-const-vbv / sar=0 / overscan=0 / videoformat=5 / range=0 / colorprim=2 / transfer=2 / colormatrix=2 / chromaloc=0 / display-window=0 / cll=0,0 / min-luma=0 / max-luma=1023 / log2-max-poc-lsb=8 / vui-timing-info / vui-hrd-info / slices=1 / no-opt-qp-pps / no-opt-ref-list-length-pps / no-multi-pass-opt-rps / scenecut-bias=0.05 / hist-threshold=0.03 / no-opt-cu-delta-qp / no-aq-motion / no-hdr10 / no-hdr10-opt / no-dhdr10-opt / no-idr-recovery-sei / analysis-reuse-level=0 / analysis-save-reuse-level=0 / analysis-load-reuse-level=0 / scale-factor=0 / refine-intra=0 / refine-inter=0 / refine-mv=1 / refine-ctu-distortion=0 / no-limit-sao / ctu-info=0 / no-lowpass-dct / refine-analysis-type=0 / copy-pic=1 / max-ausize-factor=1.0 / no-dynamic-refine / no-single-sei / no-hevc-aq / no-svt / no-field / qp-adaptation-range=1.00 / scenecut-aware-qp=0conformance-window-offsets / right=0 / bottom=0 / decoder-max-rate=0 / no-vbv-live-multi-pass
Default                     : Yes
Forced                      : No

Audio
ID                          : 2
Format                      : AAC LC
Format/Info                 : Advanced Audio Codec Low Complexity
Codec ID                    : A_AAC-2
Duration                    : 26 min 30 s
Bit rate                    : 128 kb/s
Channel(s)                  : 2 channels
Channel layout              : L R
Sampling rate               : 44.1 kHz
Frame rate                  : 43.066 FPS (1024 SPF)
Compression mode            : Lossy
Stream size                 : 24.3 MiB (5%)
Default                     : Yes
Forced                      : No

Menu
00:00:00.000                : :Chapter 01
00:00:54.054                : :Chapter 02
00:02:47.709                : :Chapter 03
00:22:10.538                : :Chapter 04

视频截图

下载地址

[鬼灭之刃 无限列车篇][01-07][1080P][WebRip][简日对白字幕 特效注解字幕(内嵌 外挂)][HEVC-10bit AAC][MKV] 4.33GB:magnet:?xt=urn:btih:9E64D1D4F0C04C47D4C4F6DF40A11A9BDDEA7808

[鬼滅之刃 無限列車篇][01-07][1080P][WebRip][繁日對白字幕 特效註解字幕(內嵌 外掛)][HEVC-10bit AAC][MKV] 4.33GB:magnet:?xt=urn:btih:8086112569F47C24D33ED99A155B03774C3475F2

【鬼滅之刃 無限列車篇 Kimetsu no Yaiba – Mugen Ressha Hen】【01-07】【BIG5】【1920X1080】【MP4】【修正合集】 2.69GB:magnet:?xt=urn:btih:53C06CBC951C7EF9E4F7418AF3FA5F7F6DFE406C

Visits: 41

留下评论

LightDark
LightDark