[2020俄罗斯战争][Подольские курсанты:最后的前线][国俄英三语/特效中英字幕][BD-MKV-1080P]

%title插图%num

◎译  名 最后的前线 / Podolskiye kursanty / The Last Frontier
◎片  名 Подольские курсанты
◎年  代 2020
◎产  地 俄罗斯
◎类  别 战争
◎语  言 俄语
◎上映日期 2020-11-04(俄罗斯)
◎IMDb链接  https://www.imdb.com/title/tt12216986
◎豆瓣评分 7.6/10 from 5325 users
◎豆瓣链接 https://movie.douban.com/subject/35058077/
◎片  长 136分钟
◎导  演 瓦季姆·舒梅列夫 Vadim Shmelev
◎编  剧 瓦季姆·舒梅列夫 Vadim Shmelev / 伊戈尔·乌戈尔尼科夫 Igor Ugolnikov
◎主  演 阿尔乔姆·古宾 Artyom Gubin
       卢博夫·康斯坦丁诺娃 Lubov Konstantinova
       亚力克萨·巴杜科夫 Aleksey Bardukov
       叶甫根尼·戴亚特洛夫 Evgeniy Dyatlov
       谢尔盖·别兹鲁科夫 Sergey Bezrukov
       罗曼·马佳诺夫 Roman Madyanov
       叶卡婕琳娜·列德尼科娃 Ekaterina Rednikova
       小谢尔盖·邦达尔丘克 Sergey Bondarchuk Jr
       达里亚 Darya Ursulyak
       瓦西里·米什琴科 Vasili Mishchenko
       帕维尔·史顿 Pavel Stont
       迪米特里·布尔热 Dmitry Brauer
       尼古拉·萨姆索诺夫 Nikolay Samsonov
      卡琳娜·曼德罗夫斯卡娅 Karina Myndrovskaya
       伊戈尔·尤金 Igor Yudin
◎标  签 二战 | 战争 | 俄罗斯 | 俄罗斯电影 | 真实事件改编 | 苏俄 | 军事 | 2020
◎简  介  

  这部电影讲述了1941年10月波多尔斯克军校学员在莫斯科郊外英勇抵抗的故事。波多尔斯克步兵和炮兵学校的学员被派往伊林斯基防线,与苏联第43军的部队并肩作战,阻止德军的前进,直到增援部队到达。由于寡不敌众,这些年仅十多岁的年轻人在一场持续近两周的战斗中献出了自己的生命。这场战 斗旨在阻止远为优势的德国军队向莫斯科推进。这部电影不仅关于战争。它也关乎爱情,真正的友情,以及从童年到成年的道路。大约3500名学员和他们的指挥官被派去坚守莫斯科郊外的最后一道防线。他们大多数人永远留在那里。

视频信息

General
Unique ID                   : 101428285561964625202753874172041042998 (0x4C4E60929D654FC04E133E833B611C36)
Complete name               : E:\最后的前线.特效中英字幕.The.Last.Frontier.2020.BD1080P.X264.DTS-HD.MA.5.1.Mandarin&Russian&English.CHS-ENG.FFans@星星.mkv
Format                      : Matroska
Format version              : Version 4
File size                   : 18.4 GiB
Duration                    : 2 h 22 min
Overall bit rate mode       : Variable
Overall bit rate            : 18.5 Mb/s
Encoded date                : UTC 2021-12-06 01:25:34
Writing application         : mkvmerge v46.0.0 ('No Deeper Escape') 64-bit
Writing library             : libebml v1.3.10 + libmatroska v1.5.2

Video
ID                          : 1
Format                      : AVC
Format/Info                 : Advanced Video Codec
Format profile              : High@L4.1
Format settings             : CABAC / 4 Ref Frames
Format settings, CABAC      : Yes
Format settings, Reference  : 4 frames
Codec ID                    : V_MPEG4/ISO/AVC
Duration                    : 2 h 22 min
Bit rate                    : 10 000 kb/s
Width                       : 1 920 pixels
Height                      : 1 080 pixels
Display aspect ratio        : 16:9
Frame rate mode             : Constant
Frame rate                  : 23.976 (24000/1001) FPS
Color space                 : YUV
Chroma subsampling          : 4:2:0
Bit depth                   : 8 bits
Scan type                   : Progressive
Bits/(Pixel*Frame)          : 0.201
Stream size                 : 9.92 GiB (54%)
Title                       : 视频码率.10000Kbps
Writing library             : x264 core 157 r2935 545de2f
Encoding settings           : cabac=1 / ref=4 / deblock=1:-3:-3 / analyse=0x3:0x133 / me=umh / subme=10 / psy=1 / psy_rd=1.00:0.00 / mixed_ref=1 / me_range=24 / chroma_me=1 / trellis=2 / 8x8dct=1 / cqm=0 / deadzone=21,11 / fast_pskip=1 / chroma_qp_offset=-2 / threads=24 / lookahead_threads=4 / sliced_threads=0 / nr=0 / decimate=1 / interlaced=0 / bluray_compat=0 / constrained_intra=0 / bframes=8 / b_pyramid=2 / b_adapt=2 / b_bias=0 / direct=3 / weightb=1 / open_gop=0 / weightp=2 / keyint=240 / keyint_min=23 / scenecut=40 / intra_refresh=0 / rc_lookahead=60 / rc=2pass / mbtree=1 / bitrate=10000 / ratetol=1.0 / qcomp=0.60 / qpmin=0 / qpmax=69 / qpstep=4 / cplxblur=20.0 / qblur=0.5 / vbv_maxrate=62500 / vbv_bufsize=78125 / nal_hrd=none / filler=0 / ip_ratio=1.40 / aq=1:1.00
Language                    : English
Default                     : Yes
Forced                      : No

Audio #1
ID                          : 2
Format                      : DTS XLL
Format/Info                 : Digital Theater Systems
Commercial name             : DTS-HD Master Audio
Codec ID                    : A_DTS
Duration                    : 2 h 22 min
Bit rate mode               : Variable
Bit rate                    : 2 057 kb/s
Channel(s)                  : 6 channels
Channel layout              : C L R Ls Rs LFE
Sampling rate               : 48.0 kHz
Frame rate                  : 93.750 FPS (512 SPF)
Bit depth                   : 16 bits
Compression mode            : Lossless
Stream size                 : 2.04 GiB (11%)
Title                       : 央视国语配音.DTS-HD.MA.5.1-2057Kbps
Language                    : Chinese
Default                     : No
Forced                      : No

Audio #2
ID                          : 3
ID in the original source m : 4354 (0x1102)
Format                      : DTS XLL
Format/Info                 : Digital Theater Systems
Commercial name             : DTS-HD Master Audio
Codec ID                    : A_DTS
Duration                    : 2 h 22 min
Bit rate mode               : Variable
Bit rate                    : 3 171 kb/s
Channel(s)                  : 6 channels
Channel layout              : C L R Ls Rs LFE
Sampling rate               : 48.0 kHz
Frame rate                  : 93.750 FPS (512 SPF)
Bit depth                   : 24 bits
Compression mode            : Lossless
Stream size                 : 3.15 GiB (17%)
Title                       : 俄国毛子俄语.DTS-HD.MA.5.1-3171Kbps
Language                    : Russian
Default                     : Yes
Forced                      : No
Original source medium      : Blu-ray

Audio #3
ID                          : 4
ID in the original source m : 4352 (0x1100)
Format                      : DTS XLL
Format/Info                 : Digital Theater Systems
Commercial name             : DTS-HD Master Audio
Codec ID                    : A_DTS
Duration                    : 2 h 22 min
Bit rate mode               : Variable
Bit rate                    : 3 297 kb/s
Channel(s)                  : 6 channels
Channel layout              : C L R Ls Rs LFE
Sampling rate               : 48.0 kHz
Frame rate                  : 93.750 FPS (512 SPF)
Bit depth                   : 24 bits
Compression mode            : Lossless
Stream size                 : 3.28 GiB (18%)
Title                       : 美国鬼子英语.DTS-HD.MA.5.1-3297Kbps
Language                    : English
Default                     : No
Forced                      : No
Original source medium      : Blu-ray

视频截图

下载地址

[硬字幕]最后的前线.特效中英字幕.第二次改名.The.Last.Frontier.2020.BD1080P.X264.DTS-HD.MA.5.1.Mandarin&Russian&English.CHS-ENG.FFans@星星 18.40GB:magnet:?xt=urn:btih:D41D66F0CE9168092EB720692721A5CFFD963DC8

Visits: 23

留下评论

LightDark
LightDark