[大陆动画][天书奇谭4K纪念版][国语配音/中英字幕][WEB-MP4-2160P(4K)]

%title插图%num

◎译  名 天书奇谭 / 天书奇谭4K纪念版 / The Legend of Sealed Book / Secrets of the Heavenly Book
◎年  代 1983
◎产  地 中国大陆
◎类  别 动画 / 奇幻
◎语  言 汉语普通话
◎上映日期 1983(中国大陆) / 2021-11-05(中国大陆重映)
◎IMDb链接 https://www.imdb.com/title/tt6035092/
◎豆瓣评分 9.2/10 (238861人评价)
◎豆瓣链接 https://movie.douban.com/subject/1428581/
◎片  长 89分钟
◎导  演 王树忱 Shuchen Wang (id:1316862)
      钱运达 Yunda Qian (id:1321910)
◎编  剧 包蕾 Lei Bao (id:1277845)
      王树忱 Shuchen Wang (id:1316862)
      罗贯中 Guanzhong Luo (id:1275985)
      冯梦龙 Menglong Feng (id:1462793)
      顾汉昌 Hanchang Gu (id:1418134)
◎演  员 丁建华 Jianhua Ding (id:1318218)
      毕克 Ke Bi (id:1322554)
      苏秀 Xiu Su (id:1326252)
      程晓桦 Xiaohua Cheng (id:1326291)
      施融 Rong Shi (id:1380734)
      于鼎 Ding Yu (id:1331562)
      杨成纯 Chengchun Yang (id:1417706)
      孙渝烽 Yufeng Sun (id:1391476)
      胡庆汉 Qinghan Hu (id:1415209)
      尚华 Hua Shang (id:1326253)
      刘广宁 Guangning Liu (id:1318246)
      乔榛 Zhen Qiao (id:1318217)
      严崇德 Chongde Yan (id:1417707)
      伍经纬 Jingwei Wu (id:1417708)
      童自荣 Zirong Tong (id:1318216)
      程玉珠 Yuzhu Cheng (id:1331873)
      曹雷 Lei Cao (id:1326251)
      王建新 Jianxin Wang (id:1348621)
      杨文元 Wenyuan Yang (id:1417711)
      富润生 Runsheng Fu (id:1331561)
      刘钦 Qin Liu (id:1330932)
      刘风 Feng Liu (id:1384135)
      翟巍 Wei Zhai (id:1320013)
      张欣 Xin Zhang (id:1325717)
      郭易峰 Yifeng Guo (id:1341237)
      王肖兵 Xiaobing Wang (id:1321913)
      速达 Da Su (id:1327328)
      熊南清 Nanqing Xiong (id:1417989)
      李庆吉 Qingji Li (id:1418133)
      吴应炬 Yingju Wu (id:1336068)
      沈逸文 Yiwen Shen (id:1418036)
      张洁敏 Jiemin Zhang (id:1418037)
      曹鹏 Peng Cao (id:1418136)
      韩中杰 Zhongjie Han (id:1418135)
      王世荣 Shirong Wang (id:1410526)
      金志成 Zhicheng Jin (id:1417719)
      楼英 Ying Lou (id:1418109)
      强小柏 Xiaobo Qiang (id:1350706)
      李开基 Kaiji Li (id:1417720)
      黄炜 Wei Huang (id:1382147)
      苏秀 Xiu Su (id:1326252)
      张欣 Xin Zhang (id:1325717)
      刘风 Feng Liu (id:1384135)
      陆仲伯 Zhongbo Lu (id:1412883)
      张阳 Yang Zhang (id:1378375)
      张元浩 Yuanhao Zhang (id:1398091)
      虞妙英 Miaoying Yu (id:1418132)
      柯明 Ming Ke (id:1406493)
      马克宣 Kexuan Ma (id:1348926)
      陆青 Qing Lu (id:1380796)
      范马迪 Madi Fan (id:1336069)
      薛梅君 Meijun Xue (id:1359559)
      秦一真 Yizhen Qin (id:1348990)
      庄敏瑾 Minjin Zhuang (id:1376621)
      朱毓平 Yuping Zhu (id:1398839)
      徐玄德 Xuande Xu (id:1418100)
      秦宝宜 Baoyi Qin (id:1418102)
      潘积耀 Jiyao Pan (id:1418099)
      王进 Jin Wang (id:1418104)
      陈明明 Mingming Chen (id:1418105)
      徐庚生 Gengsheng Xu (id:1418113)
      李荣中 Rongzhong Li (id:1418110)
      张纪平 Jiping Zhang (id:1418112)
      方澎年 Pengnian Fang (id:1410522)
      仲云娣 Yundi Zhong (id:1418119)
      张晓琪 Xiaoqi Zhang (id:1383320)
      杨艾华 Aihua Yang (id:1418118)
      李国忠 Guozhong Li (id:1418117)
      张明达 Mingda Zhang (id:1418116)
      陈玉清 Yuqing Chen (id:1418080)
      汪伊霓 Yini Wang (id:1418111)
      姚? Xin Yao (id:1418106)
      陈光明 Guangming Chen (id:1418101)
      顾惠芳 Huifang Gu (id:1418108)
      黄文平 Wenping Huang (id:1418114)
      沈加清 Jiaqing Shen (id:1418107)
      顾文琴 Wenqin Gu (id:1418127)
      陆芬芬 Fenfen Lu (id:1418128)
      叶友娣 Youdi Ye (id:1418129)
      孙梅华 Meihua Sun (id:1418130)
      吴萍萍 Pingping Wu (id:1418131)
      彭戈 Peng Ge (id:1418079)
      陆瑞宝 Ruibao Lu (id:1418126)
      陆美珍 Meizhen Lu (id:1418125)
      颜景秀 Jingxiu Yan (id:1418115)
      韩秋芳 Qiufang Han (id:1418120)
      王光耀 Guangyao Wang (id:1418121)
      徐祖明 Zuming Xu (id:1418122)
      陈锋 Feng Chen (id:1418123)
      许松坡 Songpo Xu (id:1418124)
      胡玉娥 Yu’e Hu (id:1418038)
      吴云岳 Yunyue Wu (id:1418035)

◎标  签 国产动画 / 经典 / 动画 / 童年回忆 / 童年 / 天书奇谭 / 中国动画 / 中国

◎简  介
  天庭有珍奇书籍“天书”,被锁在石龛门里三千年。看守天书的袁公对天书的内容好奇不已,他乘无人之际,偷偷拿出观看。原来,天书上记录了一百〇八条法术,袁公偷偷下凡,把天书上的内容刻在石壁上。但本意造福人类的袁公此举却触犯了天条,遭到了玉帝的惩罚。
炼丹炉里的仙丹不慎被三条狐狸偷吃了,她们变成精下凡骗人钱财,还假扮仙姑和官府勾结,欺压百姓,祸害人间。袁公便指引天赋异禀的蛋生——一个从蛋里跳出来的孩子修习天书上的法术,和狐狸精斗智斗勇,为民除害。

视频信息

General
Complete name               : E:\DSfile\【更多高清电影访问 www.mkvhome.com】天书奇谭[国语配音+中文字幕].The.Legend.of.Sealed.Book.1983.V2.2160p.WEB-DL.H264.AAC-10006@MKVHome 10.62GB\天书奇谭.The.Legend.of.Sealed.Book.1983.V2.2160p.WEB-DL.H264.AAC-10006@MKVHome.mp4
Format                      : MPEG-4
Format profile              : Base Media
Codec ID                    : isom (isom/iso2/avc1/mp41)
File size                   : 10.6 GiB
Duration                    : 1 h 40 min
Overall bit rate            : 15.1 Mb/s
Movie name                  : 天书奇谭
Description                 : 天庭有珍奇书籍“天书”,被锁在石龛门里三千年。看守天书的袁公对天书的内容好奇不已,他乘无人之际,偷偷拿出观看。原来,天书上记录了一百〇八条法术,袁公偷偷下凡,把天书上的内容刻在石壁上。但本意造福人类的袁公此举却触犯了天条,遭到了玉帝的惩罚。炼丹炉里的仙丹不慎被三条狐狸偷吃了,她们变成精下凡骗人钱财,还假扮仙姑和官府勾结,欺压百姓,祸害人间。袁公便指引天赋异禀的蛋生——一个从蛋里跳出来的孩子修习天书上的法术,和狐狸精斗智斗勇,为民除害。
Writing application         : Lavf58.32.104
Cover                       : Yes

Video
ID                          : 1
Format                      : AVC
Format/Info                 : Advanced Video Codec
Format profile              : High@L5.1
Format settings             : CABAC / 4 Ref Frames
Format settings, CABAC      : Yes
Format settings, Reference  : 4 frames
Codec ID                    : avc1
Codec ID/Info               : Advanced Video Coding
Duration                    : 1 h 40 min
Bit rate                    : 14.8 Mb/s
Width                       : 4 096 pixels
Height                      : 1 716 pixels
Display aspect ratio        : 2.40:1
Frame rate mode             : Variable
Frame rate                  : 24.000 FPS
Minimum frame rate          : 23.810 FPS
Maximum frame rate          : 24.390 FPS
Color space                 : YUV
Chroma subsampling          : 4:2:0
Bit depth                   : 8 bits
Scan type                   : Progressive
Bits/(Pixel*Frame)          : 0.088
Stream size                 : 10.4 GiB (98%)
Writing library             : BiliBili H264 Encoder v1.0
Color range                 : Limited
Color primaries             : BT.709
Transfer characteristics    : BT.709
Matrix coefficients         : BT.709
Codec configuration box     : avcC

Audio
ID                          : 2
Format                      : AAC LC
Format/Info                 : Advanced Audio Codec Low Complexity
Codec ID                    : mp4a-40-2
Duration                    : 1 h 40 min
Bit rate mode               : Constant
Bit rate                    : 320 kb/s
Channel(s)                  : 2 channels
Channel layout              : L R
Sampling rate               : 48.0 kHz
Frame rate                  : 46.875 FPS (1024 SPF)
Compression mode            : Lossy
Stream size                 : 230 MiB (2%)
Default                     : Yes
Alternate group             : 1

视频截图

下载地址

天书奇谭[国语配音+中文字幕].The.Legend.of.Sealed.Book.1983.V2.2160p.WEB-DL.H264.AAC-10006@MKVHome 10.62GB:magnet:?xt=urn:btih:4369557263AC93341A8BF9A58F2D1FB8AF894BD5

天书奇谭[国语配音+中文字幕].The.Legend.of.Sealed.Book.1983.1080p.WEB-DL.H264.AAC-10006@MKVHome 4.33GB:magnet:?xt=urn:btih:7342AF9673F49FCCB00B9132C95CD2E198BC3B69

Visits: 129

留下评论

LightDark
LightDark