[2021美国科幻][Cowboy Bebop:星际牛仔 第一季][官译多国字幕][WEB-DL-MKV-1080p]

%title插图%num

◎译  名 星际牛仔/星际牛仔真人版
◎片  名 Cowboy Bebop
◎年  代 2021
◎产  地 美国
◎类  别 剧情/动作/科幻/犯罪/奇幻/冒险
◎语  言 英语
◎上映日期 2021-11-19(美国)
◎IMDB链接 https://www.imdb.com/title/tt1267295/
◎豆瓣评分 /10 from 0 users
◎豆瓣链接 https://douban.com/subject/3157581/
◎集  数 10
◎导  演 迈克尔·卡特曼 Michael Katleman / 亚历克斯·加西亚·洛佩斯 Alex Garcia Lopez
◎编  剧 矢立肇 Hajime Yatate / 克里斯托弗·约斯特 Christopher Yost
◎主  演 约翰·赵 John Cho
       穆斯塔法·沙基尔 Mustafa Shakir
       阿历克斯·哈赛尔 Alex Hassell
       丹妮艾拉·皮内达 Daniella Pineda
       埃莲娜·萨汀 Elena Satine
       布莱辛默克戈豪 Blessing Mokgohloa
       露西·柯里 Lucy Currey
       瑞切尔·豪斯 Rachel House
       吉欧夫·斯图兹 Geoff Stults
       塔马拉·图尼 Tamara Tunie
       侯宣德 Hoa Xuande
       罗德尼·库克 Rodney Cook
       卡利·内勒 Cali Nelle
       杰伊·保尔森 Jay Paulson
◎标  签 CowboyBebop | 科幻 | 动画 | 日本 | 渡边信一郎 | 美剧 | 美国 | Netflix
◎简  介

  Netflix打造的真人版《星际牛仔》主演卡司确定:约翰·赵、穆斯塔法·沙基尔(《卢克·凯奇》)、丹妮艾拉·皮内达([侏罗纪世界2])、阿历克斯·哈赛尔(《微缩屋工匠》)。原动画导演渡边信一郎任顾问,《猎魔人》导演亚历克斯·加西亚·洛佩兹将知道前两集,[雷神2:黑暗世界]、[雷神3:诸神黄昏]编剧克里斯托弗·约斯特撰写剧本。
  赵饰演“牛仔”(赏金猎人)Spike Spiegel。他面带致命微笑,诙谐风趣。他和前警察搭档Jet一起游历太阳系,猎取未来充满危险的赏金。
  沙基尔饰演曾是太阳系中少数诚实的警察Jet。在一次背叛夺走了他的一切之后,他被迫流浪,靠猎取赏金养家糊口。Jet也是一位爵士乐爱好者,是Bebop乐队的队长。
  皮内达饰演大胆、鲁莽、难以捉摸的赏金猎人Faye Valentine。因为多年的低温冷冻,Faye患有健忘症。但为了生存,她不惜一切代价。
  哈赛尔饰演Syndicate最臭名昭著的杀手Vicious,他也是Spike的前合伙人和死敌。

视频信息

General
Unique ID                   : 127753103627700868734600443486825225839 (0x601C5A4F8F8806CFE3E117B67F221E6F)
Complete name               : W:\Cowboy.Bebop.S01.1080p.NF.WEB-DL.x265.10bit.HDR.DDP5.1.Atmos-AGLET[rartv]\Cowboy.Bebop.S01E01.Cowboy.Gospel.1080p.NF.WEB-DL.DDP5.1.Atmos.HDR.HEVC-AGLET.mkv
Format                      : Matroska
Format version              : Version 4
File size                   : 1.72 GiB
Duration                    : 50 min 21 s
Overall bit rate            : 4 879 kb/s
Writing application         : mkvmerge v63.0.0 ('Everything') 64-bit
Writing library             : libebml v1.4.2 + libmatroska v1.6.4

Video
ID                          : 1
Format                      : HEVC
Format/Info                 : High Efficiency Video Coding
Format profile              : Main 10@L4@Main
HDR format                  : SMPTE ST 2086, HDR10 compatible
Codec ID                    : V_MPEGH/ISO/HEVC
Duration                    : 48 min 34 s
Bit rate                    : 4 258 kb/s
Width                       : 1 920 pixels
Height                      : 1 080 pixels
Display aspect ratio        : 16:9
Frame rate mode             : Constant
Frame rate                  : 23.976 (24000/1001) FPS
Color space                 : YUV
Chroma subsampling          : 4:2:0 (Type 2)
Bit depth                   : 10 bits
Bits/(Pixel*Frame)          : 0.086
Stream size                 : 1.44 GiB (84%)
Default                     : Yes
Forced                      : No
Color range                 : Limited
Color primaries             : BT.2020
Transfer characteristics    : PQ
Matrix coefficients         : BT.2020 non-constant
Mastering display color pri : Display P3
Mastering display luminance : min: 0.0001 cd/m2, max: 1000 cd/m2
Maximum Content Light Level : 756 cd/m2
Maximum Frame-Average Light : 219 cd/m2

Audio
ID                          : 2
Format                      : E-AC-3 JOC
Format/Info                 : Enhanced AC-3 with Joint Object Coding
Commercial name             : Dolby Digital Plus with Dolby Atmos
Codec ID                    : A_EAC3
Duration                    : 50 min 21 s
Bit rate mode               : Constant
Bit rate                    : 768 kb/s
Channel(s)                  : 6 channels
Channel layout              : L R C LFE Ls Rs
Sampling rate               : 48.0 kHz
Frame rate                  : 31.250 FPS (1536 SPF)
Compression mode            : Lossy
Stream size                 : 277 MiB (16%)
Language                    : English
Service kind                : Complete Main
Default                     : Yes
Forced                      : No
Complexity index            : 16
Number of dynamic objects   : 15
Bed channel count           : 1 channel
Bed channel configuration   : LFE

Text #1
ID                          : 3
Format                      : UTF-8
Codec ID                    : S_TEXT/UTF8
Codec ID/Info               : UTF-8 Plain Text
Duration                    : 46 min 21 s
Bit rate                    : 38 b/s
Count of elements           : 464
Stream size                 : 13.0 KiB (0%)
Language                    : English
Default                     : No
Forced                      : No

Text #2
ID                          : 4
Format                      : UTF-8
Codec ID                    : S_TEXT/UTF8
Codec ID/Info               : UTF-8 Plain Text
Duration                    : 46 min 33 s
Bit rate                    : 48 b/s
Count of elements           : 647
Stream size                 : 16.5 KiB (0%)
Title                       : SDH
Language                    : English
Default                     : No
Forced                      : No

Text #3
ID                          : 5
Format                      : UTF-8
Codec ID                    : S_TEXT/UTF8
Codec ID/Info               : UTF-8 Plain Text
Duration                    : 48 min 17 s
Bit rate                    : 63 b/s
Count of elements           : 481
Stream size                 : 22.3 KiB (0%)
Language                    : Arabic
Default                     : No
Forced                      : No

Text #4
ID                          : 6
Format                      : UTF-8
Codec ID                    : S_TEXT/UTF8
Codec ID/Info               : UTF-8 Plain Text
Duration                    : 48 min 17 s
Bit rate                    : 34 b/s
Count of elements           : 476
Stream size                 : 12.1 KiB (0%)
Language                    : Czech
Default                     : No
Forced                      : No

Text #5
ID                          : 7
Format                      : UTF-8
Codec ID                    : S_TEXT/UTF8
Codec ID/Info               : UTF-8 Plain Text
Duration                    : 48 min 17 s
Bit rate                    : 33 b/s
Count of elements           : 465
Stream size                 : 11.9 KiB (0%)
Language                    : Danish
Default                     : No
Forced                      : No

Text #6
ID                          : 8
Format                      : UTF-8
Codec ID                    : S_TEXT/UTF8
Codec ID/Info               : UTF-8 Plain Text
Duration                    : 48 min 17 s
Bit rate                    : 33 b/s
Count of elements           : 466
Stream size                 : 11.8 KiB (0%)
Language                    : German
Default                     : No
Forced                      : No

Text #7
ID                          : 9
Format                      : UTF-8
Codec ID                    : S_TEXT/UTF8
Codec ID/Info               : UTF-8 Plain Text
Duration                    : 48 min 17 s
Bit rate                    : 56 b/s
Count of elements           : 474
Stream size                 : 20.1 KiB (0%)
Language                    : Greek
Default                     : No
Forced                      : No

Text #8
ID                          : 10
Format                      : UTF-8
Codec ID                    : S_TEXT/UTF8
Codec ID/Info               : UTF-8 Plain Text
Duration                    : 48 min 17 s
Bit rate                    : 36 b/s
Count of elements           : 474
Stream size                 : 12.8 KiB (0%)
Language                    : Spanish
Default                     : No
Forced                      : No

Text #9
ID                          : 11
Format                      : UTF-8
Codec ID                    : S_TEXT/UTF8
Codec ID/Info               : UTF-8 Plain Text
Duration                    : 48 min 17 s
Bit rate                    : 34 b/s
Count of elements           : 470
Stream size                 : 12.2 KiB (0%)
Title                       : European
Language                    : Spanish
Default                     : No
Forced                      : No

Text #10
ID                          : 12
Format                      : UTF-8
Codec ID                    : S_TEXT/UTF8
Codec ID/Info               : UTF-8 Plain Text
Duration                    : 48 min 17 s
Bit rate                    : 31 b/s
Count of elements           : 472
Stream size                 : 11.0 KiB (0%)
Language                    : Finnish
Default                     : No
Forced                      : No

Text #11
ID                          : 13
Format                      : UTF-8
Codec ID                    : S_TEXT/UTF8
Codec ID/Info               : UTF-8 Plain Text
Duration                    : 48 min 17 s
Bit rate                    : 33 b/s
Count of elements           : 466
Stream size                 : 11.8 KiB (0%)
Language                    : French
Default                     : No
Forced                      : No

Text #12
ID                          : 14
Format                      : UTF-8
Codec ID                    : S_TEXT/UTF8
Codec ID/Info               : UTF-8 Plain Text
Duration                    : 48 min 17 s
Bit rate                    : 58 b/s
Count of elements           : 481
Stream size                 : 20.7 KiB (0%)
Language                    : Hebrew
Default                     : No
Forced                      : No

Text #13
ID                          : 15
Format                      : UTF-8
Codec ID                    : S_TEXT/UTF8
Codec ID/Info               : UTF-8 Plain Text
Duration                    : 48 min 17 s
Bit rate                    : 31 b/s
Count of elements           : 475
Stream size                 : 11.2 KiB (0%)
Language                    : Croatian
Default                     : No
Forced                      : No

Text #14
ID                          : 16
Format                      : UTF-8
Codec ID                    : S_TEXT/UTF8
Codec ID/Info               : UTF-8 Plain Text
Duration                    : 48 min 17 s
Bit rate                    : 34 b/s
Count of elements           : 474
Stream size                 : 12.1 KiB (0%)
Language                    : Hungarian
Default                     : No
Forced                      : No

Text #15
ID                          : 17
Format                      : UTF-8
Codec ID                    : S_TEXT/UTF8
Codec ID/Info               : UTF-8 Plain Text
Duration                    : 48 min 17 s
Bit rate                    : 33 b/s
Count of elements           : 476
Stream size                 : 11.9 KiB (0%)
Language                    : Indonesian
Default                     : No
Forced                      : No

Text #16
ID                          : 18
Format                      : UTF-8
Codec ID                    : S_TEXT/UTF8
Codec ID/Info               : UTF-8 Plain Text
Duration                    : 48 min 17 s
Bit rate                    : 33 b/s
Count of elements           : 472
Stream size                 : 11.8 KiB (0%)
Language                    : Italian
Default                     : No
Forced                      : No

Text #17
ID                          : 19
Format                      : UTF-8
Codec ID                    : S_TEXT/UTF8
Codec ID/Info               : UTF-8 Plain Text
Duration                    : 48 min 17 s
Bit rate                    : 35 b/s
Count of elements           : 435
Stream size                 : 12.7 KiB (0%)
Language                    : Japanese
Default                     : No
Forced                      : No

Text #18
ID                          : 20
Format                      : UTF-8
Codec ID                    : S_TEXT/UTF8
Codec ID/Info               : UTF-8 Plain Text
Duration                    : 46 min 51 s
Bit rate                    : 46 b/s
Count of elements           : 479
Stream size                 : 16.1 KiB (0%)
Language                    : Korean
Default                     : No
Forced                      : No

Text #19
ID                          : 21
Format                      : UTF-8
Codec ID                    : S_TEXT/UTF8
Codec ID/Info               : UTF-8 Plain Text
Duration                    : 48 min 17 s
Bit rate                    : 33 b/s
Count of elements           : 474
Stream size                 : 11.9 KiB (0%)
Language                    : Malay
Default                     : No
Forced                      : No

Text #20
ID                          : 22
Format                      : UTF-8
Codec ID                    : S_TEXT/UTF8
Codec ID/Info               : UTF-8 Plain Text
Duration                    : 48 min 17 s
Bit rate                    : 32 b/s
Count of elements           : 474
Stream size                 : 11.5 KiB (0%)
Language                    : Norwegian Bokmal
Default                     : No
Forced                      : No

Text #21
ID                          : 23
Format                      : UTF-8
Codec ID                    : S_TEXT/UTF8
Codec ID/Info               : UTF-8 Plain Text
Duration                    : 48 min 17 s
Bit rate                    : 31 b/s
Count of elements           : 457
Stream size                 : 11.3 KiB (0%)
Language                    : Dutch
Default                     : No
Forced                      : No

Text #22
ID                          : 24
Format                      : UTF-8
Codec ID                    : S_TEXT/UTF8
Codec ID/Info               : UTF-8 Plain Text
Duration                    : 48 min 17 s
Bit rate                    : 31 b/s
Count of elements           : 463
Stream size                 : 11.1 KiB (0%)
Language                    : Polish
Default                     : No
Forced                      : No

Text #23
ID                          : 25
Format                      : UTF-8
Codec ID                    : S_TEXT/UTF8
Codec ID/Info               : UTF-8 Plain Text
Duration                    : 48 min 17 s
Bit rate                    : 34 b/s
Count of elements           : 473
Stream size                 : 12.3 KiB (0%)
Language                    : Portuguese
Default                     : No
Forced                      : No

Text #24
ID                          : 26
Format                      : UTF-8
Codec ID                    : S_TEXT/UTF8
Codec ID/Info               : UTF-8 Plain Text
Duration                    : 48 min 17 s
Bit rate                    : 33 b/s
Count of elements           : 472
Stream size                 : 11.8 KiB (0%)
Title                       : Brazilian
Language                    : Portuguese
Default                     : No
Forced                      : No

Text #25
ID                          : 27
Format                      : UTF-8
Codec ID                    : S_TEXT/UTF8
Codec ID/Info               : UTF-8 Plain Text
Duration                    : 48 min 17 s
Bit rate                    : 38 b/s
Count of elements           : 474
Stream size                 : 13.7 KiB (0%)
Language                    : Romanian
Default                     : No
Forced                      : No

Text #26
ID                          : 28
Format                      : UTF-8
Codec ID                    : S_TEXT/UTF8
Codec ID/Info               : UTF-8 Plain Text
Duration                    : 48 min 17 s
Bit rate                    : 55 b/s
Count of elements           : 481
Stream size                 : 19.6 KiB (0%)
Language                    : Russian
Default                     : No
Forced                      : No

Text #27
ID                          : 29
Format                      : UTF-8
Codec ID                    : S_TEXT/UTF8
Codec ID/Info               : UTF-8 Plain Text
Duration                    : 48 min 17 s
Bit rate                    : 32 b/s
Count of elements           : 471
Stream size                 : 11.4 KiB (0%)
Language                    : Swedish
Default                     : No
Forced                      : No

Text #28
ID                          : 30
Format                      : UTF-8
Codec ID                    : S_TEXT/UTF8
Codec ID/Info               : UTF-8 Plain Text
Duration                    : 48 min 17 s
Bit rate                    : 88 b/s
Count of elements           : 481
Stream size                 : 31.4 KiB (0%)
Language                    : Thai
Default                     : No
Forced                      : No

Text #29
ID                          : 31
Format                      : UTF-8
Codec ID                    : S_TEXT/UTF8
Codec ID/Info               : UTF-8 Plain Text
Duration                    : 48 min 17 s
Bit rate                    : 34 b/s
Count of elements           : 477
Stream size                 : 12.4 KiB (0%)
Language                    : Turkish
Default                     : No
Forced                      : No

Text #30
ID                          : 32
Format                      : UTF-8
Codec ID                    : S_TEXT/UTF8
Codec ID/Info               : UTF-8 Plain Text
Duration                    : 46 min 51 s
Bit rate                    : 61 b/s
Count of elements           : 480
Stream size                 : 21.3 KiB (0%)
Language                    : Ukrainian
Default                     : No
Forced                      : No

Text #31
ID                          : 33
Format                      : UTF-8
Codec ID                    : S_TEXT/UTF8
Codec ID/Info               : UTF-8 Plain Text
Duration                    : 48 min 17 s
Bit rate                    : 48 b/s
Count of elements           : 479
Stream size                 : 17.3 KiB (0%)
Language                    : Vietnamese
Default                     : No
Forced                      : No

Text #32
ID                          : 34
Format                      : UTF-8
Codec ID                    : S_TEXT/UTF8
Codec ID/Info               : UTF-8 Plain Text
Duration                    : 48 min 17 s
Bit rate                    : 39 b/s
Count of elements           : 481
Stream size                 : 13.9 KiB (0%)
Title                       : Simplified
Language                    : Chinese
Default                     : No
Forced                      : No

Text #33
ID                          : 35
Format                      : UTF-8
Codec ID                    : S_TEXT/UTF8
Codec ID/Info               : UTF-8 Plain Text
Duration                    : 48 min 17 s
Bit rate                    : 37 b/s
Count of elements           : 481
Stream size                 : 13.1 KiB (0%)
Title                       : Traditional
Language                    : Chinese
Default                     : No
Forced                      : No

视频截图

下载地址

Cowboy.Bebop.S01.1080p.NF.WEB-DL.x265.10bit.HDR.DDP5.1.Atmos-AGLET[rartv] 17.96GB:magnet:?xt=urn:btih:DD8DC7E44D4FE8FFC98D5F46F7590479C777EE83

Cowboy.Bebop.S01.1080p.NF.WEBRip.DDP5.1.Atmos.x264-AGLET[rartv] 15.11GB:magnet:?xt=urn:btih:DE793BF660CBE932ABD0F9D339FF41720AB0571E

霸王龙压制组

百度网盘 全10集.官方中字
https://pan.baidu.com/s/18yUkx201Pbia_z-4RPj9Bg#trex 提取码:trex

阿里云网盘 全10集.官方中字
https://www.aliyundrive.com/s/KcGAyAGDDt2 

远鉴字幕组

MP4 1080P中字

迅雷云盘 https://pan.xunlei.com/s/VMosGrA9fioa7pM0exm0SLJiA1 提取码:r9ea

百度网盘 https://pan.baidu.com/s/1wBYEVfGgayiDV7VVR0cOTw 提取码: yjnb

附1998动画版:

[星际牛仔1998+剧场][全27集][日语中字]Cowboy Bebop [BD 1448×1080 HEVC-10bit AC3] 15.24GB:magnet:?xt=urn:btih:61031853FEDA3024624F6D9613330CCFAE6ABA6C

留下评论

Secured By miniOrange