[2021欧美动画][Arcane: League of Legends:英雄联盟:双城之战][官译多国字幕][WEB-DL-MKV-1080p]

%title插图%num

◎译  名 英雄联盟:双城之战/奥术/英雄联盟动画剧集
◎片  名 Arcane: League of Legends
◎年  代 2021
◎产  地 美国
◎类  别 动作/科幻/动画
◎语  言 英语
◎上映日期 2021-11-06(美国)/2021-11-07(中国大陆)
◎IMDB链接 https://www.imdb.com/title/tt11126994/
◎豆瓣评分 9.3/10 from 6590 users
◎豆瓣链接 https://douban.com/subject/34867871/
◎集  数 9
◎片  长 40分钟
◎主  演 海莉·斯坦菲尔德 Hailee Steinfeld
       艾拉·珀内尔 Ella Purnell
       梁佩诗 Katie Leung
       凯文·阿历詹卓 Kevin Alejandro
       哈里·劳埃德 Harry Lloyd
       杰森·斯皮萨克 Jason Spisak
       JB·布兰科 JB Blanc
       托克斯·奥拉贡多耶 Toks Olagundoye
       米娅·辛克莱·詹内斯 Mia Sinclair Jenness
       聂曦映 Xiying Nie
       歪歪 Fuzheng Zhang
       罗云熙 Yunxi Luo
       刘校妤 Xiaoyu Liu
       张杰 Jie Zhang
       万茜 Qian Wan
       巫蛊悠悠 Haojia Li
       刘琮 Cong Liu
◎标  签 英雄联盟 | 拳头 | 动画 | Netflix | 美漫 | 2021 | 科幻 | 动作
◎简  介

  《英雄联盟:双城之战》是英雄联盟官方动画剧集,讲述的是在充满蒸汽朋克气息的乌托邦-皮尔特沃夫和由化学品驱动的地下城-祖安中,蔚和金克丝两姐妹,她们在一场激烈的冲突后发现两个人站在了彼此的对立面。她们从此分开,走上不同的道路,朝着不同的命运终点走去,但心中的羁绊又无时不刻地让姐妹二人想要破镜重圆。

视频信息

General
Unique ID                   : 246623406937393487501042139856911527881 (0xB989F0C0B9A3C28E454B86EBEC2CEFC9)
Complete name               : E:\Arcane.S01.1080p.NF.WEB-DL.x265.10bit.HDR.DDP5.1-TEPES[rartv]\Arcane.S01E09.The.Monster.You.Created.1080p.NF.WEB-DL.DDP5.1.HDR.HEVC-TEPES.mkv
Format                      : Matroska
Format version              : Version 4
File size                   : 1.36 GiB
Duration                    : 41 min 7 s
Overall bit rate            : 4 727 kb/s
Writing application         : mkvmerge v63.0.0 ('Everything') 64-bit
Writing library             : libebml v1.4.2 + libmatroska v1.6.4

Video
ID                          : 1
Format                      : HEVC
Format/Info                 : High Efficiency Video Coding
Format profile              : Main 10@L4@Main
HDR format                  : SMPTE ST 2086, HDR10 compatible
Codec ID                    : V_MPEGH/ISO/HEVC
Duration                    : 39 min 16 s
Bit rate                    : 4 275 kb/s
Width                       : 1 920 pixels
Height                      : 1 080 pixels
Display aspect ratio        : 16:9
Frame rate mode             : Constant
Frame rate                  : 24.000 FPS
Color space                 : YUV
Chroma subsampling          : 4:2:0 (Type 2)
Bit depth                   : 10 bits
Bits/(Pixel*Frame)          : 0.086
Stream size                 : 1.17 GiB (86%)
Default                     : Yes
Forced                      : No
Color range                 : Limited
Color primaries             : BT.2020
Transfer characteristics    : PQ
Matrix coefficients         : BT.2020 non-constant
Mastering display color pri : Display P3
Mastering display luminance : min: 0.0001 cd/m2, max: 1000 cd/m2
Maximum Content Light Level : 1052 cd/m2
Maximum Frame-Average Light : 292 cd/m2

Audio
ID                          : 2
Format                      : E-AC-3
Format/Info                 : Enhanced AC-3
Commercial name             : Dolby Digital Plus
Codec ID                    : A_EAC3
Duration                    : 41 min 7 s
Bit rate mode               : Constant
Bit rate                    : 640 kb/s
Channel(s)                  : 6 channels
Channel layout              : L R C LFE Ls Rs
Sampling rate               : 48.0 kHz
Frame rate                  : 31.250 FPS (1536 SPF)
Compression mode            : Lossy
Stream size                 : 188 MiB (14%)
Language                    : English
Service kind                : Complete Main
Default                     : Yes
Forced                      : No

Text #1
ID                          : 3
Format                      : UTF-8
Codec ID                    : S_TEXT/UTF8
Codec ID/Info               : UTF-8 Plain Text
Duration                    : 34 min 55 s
Bit rate                    : 37 b/s
Count of elements           : 321
Stream size                 : 9.56 KiB (0%)
Language                    : English
Default                     : No
Forced                      : No

Text #2
ID                          : 4
Format                      : UTF-8
Codec ID                    : S_TEXT/UTF8
Codec ID/Info               : UTF-8 Plain Text
Duration                    : 38 min 46 s
Bit rate                    : 48 b/s
Count of elements           : 537
Stream size                 : 13.9 KiB (0%)
Title                       : SDH
Language                    : English
Default                     : No
Forced                      : No

Text #3
ID                          : 5
Format                      : UTF-8
Codec ID                    : S_TEXT/UTF8
Codec ID/Info               : UTF-8 Plain Text
Duration                    : 39 min 0 s
Bit rate                    : 50 b/s
Count of elements           : 312
Stream size                 : 14.3 KiB (0%)
Language                    : Arabic
Default                     : No
Forced                      : No

Text #4
ID                          : 6
Format                      : UTF-8
Codec ID                    : S_TEXT/UTF8
Codec ID/Info               : UTF-8 Plain Text
Duration                    : 39 min 0 s
Bit rate                    : 31 b/s
Count of elements           : 309
Stream size                 : 9.13 KiB (0%)
Language                    : Czech
Default                     : No
Forced                      : No

Text #5
ID                          : 7
Format                      : UTF-8
Codec ID                    : S_TEXT/UTF8
Codec ID/Info               : UTF-8 Plain Text
Duration                    : 39 min 2 s
Bit rate                    : 31 b/s
Count of elements           : 309
Stream size                 : 9.08 KiB (0%)
Language                    : Danish
Default                     : No
Forced                      : No

Text #6
ID                          : 8
Format                      : UTF-8
Codec ID                    : S_TEXT/UTF8
Codec ID/Info               : UTF-8 Plain Text
Duration                    : 39 min 0 s
Bit rate                    : 35 b/s
Count of elements           : 309
Stream size                 : 10.1 KiB (0%)
Language                    : German
Default                     : No
Forced                      : No

Text #7
ID                          : 9
Format                      : UTF-8
Codec ID                    : S_TEXT/UTF8
Codec ID/Info               : UTF-8 Plain Text
Duration                    : 39 min 0 s
Bit rate                    : 59 b/s
Count of elements           : 312
Stream size                 : 17.1 KiB (0%)
Language                    : Greek
Default                     : No
Forced                      : No

Text #8
ID                          : 10
Format                      : UTF-8
Codec ID                    : S_TEXT/UTF8
Codec ID/Info               : UTF-8 Plain Text
Duration                    : 39 min 1 s
Bit rate                    : 32 b/s
Count of elements           : 309
Stream size                 : 9.32 KiB (0%)
Language                    : Spanish
Default                     : No
Forced                      : No

Text #9
ID                          : 11
Format                      : UTF-8
Codec ID                    : S_TEXT/UTF8
Codec ID/Info               : UTF-8 Plain Text
Duration                    : 39 min 0 s
Bit rate                    : 32 b/s
Count of elements           : 309
Stream size                 : 9.26 KiB (0%)
Title                       : European
Language                    : Spanish
Default                     : No
Forced                      : No

Text #10
ID                          : 12
Format                      : UTF-8
Codec ID                    : S_TEXT/UTF8
Codec ID/Info               : UTF-8 Plain Text
Duration                    : 39 min 2 s
Bit rate                    : 33 b/s
Count of elements           : 309
Stream size                 : 9.45 KiB (0%)
Language                    : Finnish
Default                     : No
Forced                      : No

Text #11
ID                          : 13
Format                      : UTF-8
Codec ID                    : S_TEXT/UTF8
Codec ID/Info               : UTF-8 Plain Text
Duration                    : 39 min 0 s
Bit rate                    : 36 b/s
Count of elements           : 303
Stream size                 : 10.5 KiB (0%)
Language                    : French
Default                     : No
Forced                      : No

Text #12
ID                          : 14
Format                      : UTF-8
Codec ID                    : S_TEXT/UTF8
Codec ID/Info               : UTF-8 Plain Text
Duration                    : 39 min 0 s
Bit rate                    : 49 b/s
Count of elements           : 312
Stream size                 : 14.2 KiB (0%)
Language                    : Hebrew
Default                     : No
Forced                      : No

Text #13
ID                          : 15
Format                      : UTF-8
Codec ID                    : S_TEXT/UTF8
Codec ID/Info               : UTF-8 Plain Text
Duration                    : 39 min 0 s
Bit rate                    : 31 b/s
Count of elements           : 309
Stream size                 : 8.88 KiB (0%)
Language                    : Croatian
Default                     : No
Forced                      : No

Text #14
ID                          : 16
Format                      : UTF-8
Codec ID                    : S_TEXT/UTF8
Codec ID/Info               : UTF-8 Plain Text
Duration                    : 39 min 0 s
Bit rate                    : 34 b/s
Count of elements           : 309
Stream size                 : 9.76 KiB (0%)
Language                    : Hungarian
Default                     : No
Forced                      : No

Text #15
ID                          : 17
Format                      : UTF-8
Codec ID                    : S_TEXT/UTF8
Codec ID/Info               : UTF-8 Plain Text
Duration                    : 39 min 1 s
Bit rate                    : 33 b/s
Count of elements           : 314
Stream size                 : 9.50 KiB (0%)
Language                    : Indonesian
Default                     : No
Forced                      : No

Text #16
ID                          : 18
Format                      : UTF-8
Codec ID                    : S_TEXT/UTF8
Codec ID/Info               : UTF-8 Plain Text
Duration                    : 39 min 0 s
Bit rate                    : 33 b/s
Count of elements           : 309
Stream size                 : 9.50 KiB (0%)
Language                    : Italian
Default                     : No
Forced                      : No

Text #17
ID                          : 19
Format                      : UTF-8
Codec ID                    : S_TEXT/UTF8
Codec ID/Info               : UTF-8 Plain Text
Duration                    : 35 min 26 s
Bit rate                    : 37 b/s
Count of elements           : 304
Stream size                 : 9.69 KiB (0%)
Language                    : Japanese
Default                     : No
Forced                      : No

Text #18
ID                          : 20
Format                      : UTF-8
Codec ID                    : S_TEXT/UTF8
Codec ID/Info               : UTF-8 Plain Text
Duration                    : 35 min 26 s
Bit rate                    : 47 b/s
Count of elements           : 325
Stream size                 : 12.2 KiB (0%)
Language                    : Korean
Default                     : No
Forced                      : No

Text #19
ID                          : 21
Format                      : UTF-8
Codec ID                    : S_TEXT/UTF8
Codec ID/Info               : UTF-8 Plain Text
Duration                    : 39 min 1 s
Bit rate                    : 34 b/s
Count of elements           : 310
Stream size                 : 9.82 KiB (0%)
Language                    : Malay
Default                     : No
Forced                      : No

Text #20
ID                          : 22
Format                      : UTF-8
Codec ID                    : S_TEXT/UTF8
Codec ID/Info               : UTF-8 Plain Text
Duration                    : 39 min 0 s
Bit rate                    : 31 b/s
Count of elements           : 307
Stream size                 : 9.03 KiB (0%)
Language                    : Norwegian Bokmal
Default                     : No
Forced                      : No

Text #21
ID                          : 23
Format                      : UTF-8
Codec ID                    : S_TEXT/UTF8
Codec ID/Info               : UTF-8 Plain Text
Duration                    : 39 min 1 s
Bit rate                    : 33 b/s
Count of elements           : 309
Stream size                 : 9.47 KiB (0%)
Language                    : Dutch
Default                     : No
Forced                      : No

Text #22
ID                          : 24
Format                      : UTF-8
Codec ID                    : S_TEXT/UTF8
Codec ID/Info               : UTF-8 Plain Text
Duration                    : 39 min 0 s
Bit rate                    : 31 b/s
Count of elements           : 309
Stream size                 : 9.08 KiB (0%)
Language                    : Polish
Default                     : No
Forced                      : No

Text #23
ID                          : 25
Format                      : UTF-8
Codec ID                    : S_TEXT/UTF8
Codec ID/Info               : UTF-8 Plain Text
Duration                    : 39 min 0 s
Bit rate                    : 32 b/s
Count of elements           : 307
Stream size                 : 9.32 KiB (0%)
Language                    : Portuguese
Default                     : No
Forced                      : No

Text #24
ID                          : 26
Format                      : UTF-8
Codec ID                    : S_TEXT/UTF8
Codec ID/Info               : UTF-8 Plain Text
Duration                    : 39 min 0 s
Bit rate                    : 32 b/s
Count of elements           : 311
Stream size                 : 9.33 KiB (0%)
Title                       : Brazilian
Language                    : Portuguese
Default                     : No
Forced                      : No

Text #25
ID                          : 27
Format                      : UTF-8
Codec ID                    : S_TEXT/UTF8
Codec ID/Info               : UTF-8 Plain Text
Duration                    : 39 min 0 s
Bit rate                    : 37 b/s
Count of elements           : 309
Stream size                 : 10.6 KiB (0%)
Language                    : Romanian
Default                     : No
Forced                      : No

Text #26
ID                          : 28
Format                      : UTF-8
Codec ID                    : S_TEXT/UTF8
Codec ID/Info               : UTF-8 Plain Text
Duration                    : 39 min 2 s
Bit rate                    : 54 b/s
Count of elements           : 312
Stream size                 : 15.7 KiB (0%)
Language                    : Russian
Default                     : No
Forced                      : No

Text #27
ID                          : 29
Format                      : UTF-8
Codec ID                    : S_TEXT/UTF8
Codec ID/Info               : UTF-8 Plain Text
Duration                    : 39 min 2 s
Bit rate                    : 32 b/s
Count of elements           : 310
Stream size                 : 9.21 KiB (0%)
Language                    : Swedish
Default                     : No
Forced                      : No

Text #28
ID                          : 30
Format                      : UTF-8
Codec ID                    : S_TEXT/UTF8
Codec ID/Info               : UTF-8 Plain Text
Duration                    : 39 min 2 s
Bit rate                    : 81 b/s
Count of elements           : 314
Stream size                 : 23.4 KiB (0%)
Language                    : Thai
Default                     : No
Forced                      : No

Text #29
ID                          : 31
Format                      : UTF-8
Codec ID                    : S_TEXT/UTF8
Codec ID/Info               : UTF-8 Plain Text
Duration                    : 39 min 0 s
Bit rate                    : 34 b/s
Count of elements           : 309
Stream size                 : 9.82 KiB (0%)
Language                    : Turkish
Default                     : No
Forced                      : No

Text #30
ID                          : 32
Format                      : UTF-8
Codec ID                    : S_TEXT/UTF8
Codec ID/Info               : UTF-8 Plain Text
Duration                    : 39 min 0 s
Bit rate                    : 52 b/s
Count of elements           : 311
Stream size                 : 15.1 KiB (0%)
Language                    : Ukrainian
Default                     : No
Forced                      : No

Text #31
ID                          : 33
Format                      : UTF-8
Codec ID                    : S_TEXT/UTF8
Codec ID/Info               : UTF-8 Plain Text
Duration                    : 39 min 0 s
Bit rate                    : 49 b/s
Count of elements           : 313
Stream size                 : 14.1 KiB (0%)
Language                    : Vietnamese
Default                     : No
Forced                      : No

Text #32
ID                          : 34
Format                      : UTF-8
Codec ID                    : S_TEXT/UTF8
Codec ID/Info               : UTF-8 Plain Text
Duration                    : 39 min 0 s
Bit rate                    : 36 b/s
Count of elements           : 346
Stream size                 : 10.3 KiB (0%)
Title                       : Simplified
Language                    : Chinese
Default                     : No
Forced                      : No

Text #33
ID                          : 35
Format                      : UTF-8
Codec ID                    : S_TEXT/UTF8
Codec ID/Info               : UTF-8 Plain Text
Duration                    : 39 min 2 s
Bit rate                    : 38 b/s
Count of elements           : 327
Stream size                 : 10.9 KiB (0%)
Title                       : Traditional
Language                    : Chinese
Default                     : No
Forced                      : No

视频截图

下载地址

Arcane.S01.1080p.NF.WEB-DL.x265.10bit.HDR.DDP5.1-TEPES[rartv] 12.31GB:magnet:?xt=urn:btih:9F567BF4460DAD2BEBD13DA83DCC367DA2212315

Arcane.S01.720p.NF.WEBRip.DDP5.1.x264-TEPES[rartv]5.47GB:magnet:?xt=urn:btih:BCE40D9D1786C77D807DC4DB9F214477B39A5CA4

留下评论

Secured By miniOrange