[2021日本动画] [名探偵コナン 緋色の弾丸:名侦探柯南 剧场版24:绯色的子弹][日语中字][BD-MKV-1080P]

%title插图%num

◎译  名 名侦探柯南:绯色的子弹/名侦探柯南:绯色的弹丸/名侦探柯南24/Detective Conan: The Scarlet Bullet

◎片  名 名探偵コナン 緋色の弾丸

◎年  代 2021

◎产  地 日本

◎类  别 动作/动画/悬疑/冒险

◎语  言 日语/英语

◎上映日期 2021-04-16(日本)/2021-04-17(中国大陆)

◎IMDb评分  6.5/10 from 521 users

◎IMDb链接  https://www.imdb.com/title/tt12093860/

◎豆瓣评分 5.8/10 from 85317 users

◎豆瓣链接 https://douban.com/subject/33454993/

◎片  长 110分钟

◎导  演 永冈智佳 Tomoka Nagaoka

◎编  剧 樱井武晴 Takahiro Sakurai / 青山刚昌 Gôshô Aoyama

◎主  演 高山南 Minami Takayama

       山崎和佳奈 Wakana Yamazaki

       小山力也 Rikiya Koyama

       林原惠美 Megumi Hayashibara

       日高法子 Noriko Hidaka

       田中敦子 Atsuko Tanaka

       森川智之 Toshiyuki Morikawa

       池田秀一 Shûichi Ikeda

       一城美由希 Ichijou Miyuki

       梁田清之 Kiyoyuki Yanada

       土师孝也 Takaya Hashi

       杉本优 Yu Sugimoto

       滨边美波 Minami Hamabe

       松井菜樱子 Naoko Matsui

       绪方贤一 Kenichi Ogata

       宝木中阳 Ming Song

       平野绫 Aya Hirano

◎标  签 日本 | 剧场版 | 动漫 | 动画 | 推理 | 2021 | 悬疑 | 电影

◎简  介

  故事发生于东京,在全球最大体育盛事WSG即将召开之际,知名企业的高官却接连在赞助商酒会现场遭到绑架,而自新名古屋站至东京的最高时速1000km的真空超导磁悬浮列车也被卷入其中,一场牵动国际目光的重大案件就此展开。

视频信息

General
Unique ID                      : 141373397875189271050675353671801588514 (0x6A5B86A9F3ADF65D2ACACB678B654B22)
Complete name                  : W:\Detective.Conan.The.Scarlet.Bullet.2021.JAPANESE.1080p.BluRay.x264.DDP5.1-PTer\Detective.Conan.The.Scarlet.Bullet.2021.1080p.BluRay.DD5.1.x264-PTer.mkv
Format                         : Matroska
Format version                 : Version 4
File size                      : 6.39 GiB
Duration                       : 1 h 50 min
Overall bit rate               : 8 294 kb/s
Movie name                     : Detective Conan: The Scarlet Bullet 2021 1080p BluRay DD+5.1 x264-PTer
Encoded date                   : UTC 2021-11-07 05:28:32
Writing application            : mkvmerge v61.0.0 ('So') 64-bit
Writing library                : libebml v1.4.2 + libmatroska v1.6.4

Video
ID                             : 1
Format                         : AVC
Format/Info                    : Advanced Video Codec
Format profile                 : High@L4.1
Format settings                : CABAC / 4 Ref Frames
Format settings, CABAC         : Yes
Format settings, Reference fra : 4 frames
Codec ID                       : V_MPEG4/ISO/AVC
Duration                       : 1 h 50 min
Bit rate                       : 7 268 kb/s
Width                          : 1 920 pixels
Height                         : 1 080 pixels
Display aspect ratio           : 16:9
Frame rate mode                : Constant
Frame rate                     : 23.976 (24000/1001) FPS
Color space                    : YUV
Chroma subsampling             : 4:2:0
Bit depth                      : 8 bits
Scan type                      : Progressive
Bits/(Pixel*Frame)             : 0.146
Stream size                    : 5.60 GiB (88%)
Writing library                : x264 core 161 r3027 4121277
Encoding settings              : cabac=1 / ref=4 / deblock=1:-3:-3 / analyse=0x3:0x133 / me=umh / subme=11 / psy=1 / psy_rd=1.04:0.00 / mixed_ref=1 / me_range=32 / chroma_me=1 / trellis=2 / 8x8dct=1 / cqm=0 / deadzone=21,11 / fast_pskip=0 / chroma_qp_offset=-2 / threads=34 / lookahead_threads=8 / sliced_threads=0 / nr=0 / decimate=0 / interlaced=0 / bluray_compat=0 / constrained_intra=0 / bframes=16 / b_pyramid=2 / b_adapt=2 / b_bias=0 / direct=3 / weightb=1 / open_gop=0 / weightp=2 / keyint=250 / keyint_min=23 / scenecut=40 / intra_refresh=0 / rc_lookahead=250 / rc=crf / mbtree=0 / crf=18.0 / qcomp=0.60 / qpmin=0 / qpmax=69 / qpstep=4 / vbv_maxrate=62500 / vbv_bufsize=78125 / crf_max=0.0 / nal_hrd=none / filler=0 / ip_ratio=1.30 / pb_ratio=1.20 / aq=3:0.78 / zones=1989,2048,crf=16/2218,2257,crf=16/3116,3315,crf=16/10286,10353,crf=16/15572,15648,crf=16/21059,21669,crf=16/23686,23690,crf=16/24327,24698,crf=16/24971,25192,crf=16/25305,25322,crf=16/35852,35864,crf=16/65206,65219,crf=16/86347,86475,crf=16/91407,91448,crf=16/92414,92545,crf=16/100965,101000,crf=16/102087,102128,crf=16/104943,105116,crf=16/107082,107318,crf=16/109843,109953,crf=16/102108,112190,crf=16/113303,113500,crf=16/113645,113765,crf=16/113861,113980,crf=16/114647,114707,crf=16/117697,117758,crf=16/143595,143666,crf=16/144225,144339,crf=16/145073,145120,crf=16/147039,147110,crf=16/148299,148406,crf=16/156453,156526,crf=16
Language                       : English
Default                        : Yes
Forced                         : No
Color range                    : Limited
Color primaries                : BT.709
Matrix coefficients            : BT.709

Audio
ID                             : 2
Format                         : E-AC-3
Format/Info                    : Enhanced AC-3
Commercial name                : Dolby Digital Plus
Codec ID                       : A_EAC3
Duration                       : 1 h 50 min
Bit rate mode                  : Constant
Bit rate                       : 1 023 kb/s
Channel(s)                     : 6 channels
Channel layout                 : L R C LFE Ls Rs
Sampling rate                  : 48.0 kHz
Frame rate                     : 93.750 FPS (512 SPF)
Compression mode               : Lossy
Stream size                    : 807 MiB (12%)
Title                          : Japanese
Language                       : Japanese
Service kind                   : Complete Main
Default                        : Yes
Forced                         : No

Text #1
ID                             : 3
Format                         : UTF-8
Codec ID                       : S_TEXT/UTF8
Codec ID/Info                  : UTF-8 Plain Text
Duration                       : 1 h 50 min
Bit rate                       : 88 b/s
Count of elements              : 2647
Stream size                    : 71.5 KiB (0%)
Title                          : Simplified Chinese
Language                       : Chinese
Default                        : No
Forced                         : No

Text #2
ID                             : 4
Format                         : UTF-8
Codec ID                       : S_TEXT/UTF8
Codec ID/Info                  : UTF-8 Plain Text
Duration                       : 1 h 50 min
Bit rate                       : 99 b/s
Count of elements              : 2645
Stream size                    : 80.0 KiB (0%)
Title                          : English
Language                       : English
Default                        : No
Forced                         : No

Menu
00:00:00.000                   : :Chapter 1
00:08:52.282                   : :Chapter 2
00:15:11.577                   : :Chapter 3
00:17:41.811                   : :Chapter 4
00:21:56.023                   : :Chapter 5
00:30:28.452                   : :Chapter 6
00:35:47.896                   : :Chapter 7
00:42:31.174                   : :Chapter 8
00:46:46.804                   : :Chapter 9
00:52:46.997                   : :Chapter 10
00:57:16.141                   : :Chapter 11
01:02:28.912                   : :Chapter 12
01:08:06.082                   : :Chapter 13
01:20:39.585                   : :Chapter 14
01:27:05.720                   : :Chapter 15
01:36:24.445                   : :Chapter 16
01:42:35.775                   : :Chapter 17
01:44:11.996                   : :Chapter 18
01:48:31.755                   : :Chapter 19
01:50:01.512                   : :Chapter 20

视频截图

下载地址

Detective.Conan.The.Scarlet.Bullet.2021.JAPANESE.1080p.BluRay.x264.DDP5.1-PTer 6.39GB:magnet:?xt=urn:btih:705F9877DE48E46D8F65BE4726932331E3D3887E

名侦探柯南:绯色的子弹[国日音轨+简繁字幕].Detective.Conan.The.Scarlet.Bullet.2021.1080p.BluRay.x264-10012@BBQDDQ.COM 11.04GB:magnet:?xt=urn:btih:18C427AA554376DC9621AF0FE93FCB6D690D1F96

名侦探柯南:绀青之拳国日双语.中字.Detective.Conan.The.Fist.of.Blue.Sapphire.2019.BluRay.AAC.2Audio.x264.mkv 1.86GB:magnet:?xt=urn:btih:54136F8C0ED8107F53C2FD478B74449EDB6BB24A&dn=%E5%90%8D%E4%BE%A6%E6%8E%A2%E6%9F%AF%E5%8D%97%EF%BC%9A%E7%BB%80%E9%9D%92%E4%B9%8B%E6%8B%B3%E5%9B%BD%E6%97%A5%E5%8F%8C%E8%AF%AD.%E4%B8%AD%E5%AD%97.Detective.Conan.The.Fist.of.Blue.Sapphire.2019.BluRay.AAC.2Audio.x264.mkv

[名侦探柯南.零的执行人].Zero.the.Enforcer.2018.BD.1080P.x265.10bit.AAC&AC3.日国台粤.内封中繁-FFans@ws林小凡 3.31GB:magnet:?xt=urn:btih:4B0EFD9039750492DB02A0D891D4195883E5B251

名侦探柯南剧场版21:唐红的恋歌 [BD-mkv/3.51GB][三语][720P] 3.51GB:magnet:?xt=urn:btih:32A004CA9E4B11FAE7A4C9A41452901A57149904

[名侦探柯南:纯黑的恶梦]Detective.Conan.The.Darkest.Nightmare.2016.BluRay.720p.x264.3Audio.AC3-CnSCG 3.50GB:magnet:?xt=urn:btih:775C66694B8AEAD58B614630A7C9961EB7DA3787

名侦探柯南剧场版19.业火的向日葵.日中台粤四语.简繁日英四字.Detective.Conan.Movie.19.Sunflowers.of.Inferno.2015.1080P.x264.AAC.4Audios.mkv 2.50GB:magnet:?xt=urn:btih:9583C8EF8EDB886D00F8943B41C4C6E341395BE0&dn=%E5%90%8D%E4%BE%A6%E6%8E%A2%E6%9F%AF%E5%8D%97%E5%89%A7%E5%9C%BA%E7%89%8819.%E4%B8%9A%E7%81%AB%E7%9A%84%E5%90%91%E6%97%A5%E8%91%B5.%E6%97%A5%E4%B8%AD%E5%8F%B0%E7%B2%A4%E5%9B%9B%E8%AF%AD.%E7%AE%80%E7%B9%81%E6%97%A5%E8%8B%B1%E5%9B%9B%E5%AD%97.Detective.Conan.Movie.19.Sunflowers.of.Inferno.2015.1080P.x264.AAC.4Audios.mkv

名侦探柯南剧场版1-18 国粤日三语 720p 46.51GB:magnet:?xt=urn:btih:e1d0184a047782e9b1df4ecfb1085697b952789d

【蓝色狂想制作】名侦探柯南剧场版22周年合集 1-22 日语中字 1080p 71.21GB:magnet:?xt=urn:btih:c7991804e8e4b73f3f4f6f305bb0a58acc538330&tr=http://tracker.36dm.com:2710/announce

留下评论

Secured By miniOrange