[2021德国动作犯罪]《Army of Thieves:神偷军团》[官译简繁英多语字幕][WEB-MKV-1080p]

%title插图%num

◎译  名 神偷军团 / 活死人军团前传 / 行盗之师 / 神偷大军 / 不羁贼军 / 窃贼军团
◎片  名 Army of Thieves
◎年  代 2021
◎产  地 德国 / 美国
◎类  别 动作 / 犯罪
◎语  言 英语 / 法语 / 德语
◎上映日期 2021-10-29(美国网络)
◎IMDb链接 https://www.imdb.com/title/tt13024674/
◎豆瓣评分 6.2/10 from 5705 users
◎豆瓣链接 https://movie.douban.com/subject/35245762/
◎导  演 马提亚斯·施维赫夫 Matthias Schweigh?fer (id:1032127)
◎编  剧 谢伊·哈顿 Shay Hatten (id:1414311)
      扎克·施奈德 Zack Snyder (id:1031904)
◎演  员 马提亚斯·施维赫夫 Matthias Schweigh?fer (id:1032127)
      娜塔莉·伊曼纽尔 Nathalie Emmanuel (id:1328248)
      露比·欧·菲 Ruby O. Fee (id:1267794)
      斯图尔特·马丁 Stuart Martin (id:1339634)
      古兹·可汗 Guz Khan (id:1401968)
      乔纳森·科恩 Jonathan Cohen (id:1332591)
      诺米·娜凯 Noémie Nakai (id:1376973)
      特论特·加内特 Trent Garrett (id:1426145)
      芭芭拉·梅尔 Barbara Meier (id:1255241)
      吉姆·海伊 Jim High (id:1345207)
      崔西·奥斯蒙德 Trish Osmond (id:1443755)
      扎克·施奈德 Zack Snyder (id:1031904)
      史蒂夫·马扎罗 Steve Mazzaro (id:1460775)
      汉斯·季默 Hans Zimmer (id:1054386)
      伯恩哈德·贾斯珀 Bernhard Jasper (id:1287621)
      Alexander Berner Alexander Berner (id:1278486)

◎标  签 扎克·施奈德 / 动作 / 犯罪 / 丧尸 / 德国 / 扎克施耐德 / 2021 / 惊悚

◎简  介
  这是扎克·斯奈德的电影《亡者之师》的前传,片中小镇银行出纳迪特尔被一名神秘女子招进一支抢劫团队。团队成员均是被国际刑警组织盯上的头号通缉犯,他们以欧洲各地最难破解的传奇保险箱为目标,这让迪特尔由此踏上了终身难忘的冒险之旅。

视频信息

General
Unique ID                      : 8342337177431093306539055089064961303 (0x646ACFA84E75901A54716C806BD6517)
Complete name                  : W:\【更多高清电影访问 www.BBQDDQ.com】神偷军团[中文字幕].Army.of.Thieves.2021.NF.1080p.WEB-DL.DDP5.1.H264-10006@BBQDDQ.COM 3.41GB\Army.of.Thieves.2021.NF.1080p.WEB-DL.DDP5.1.H264-10006@BBQDDQ.COM.mkv
Format                         : Matroska
Format version                 : Version 4
File size                      : 3.41 GiB
Duration                       : 2 h 9 min
Overall bit rate mode          : Variable
Overall bit rate               : 3 765 kb/s
Movie name                     : RAB
Encoded date                   : UTC 2021-10-29 13:33:58
Writing application            : mkvmerge v44.0.0 ('Domino') 64-bit
Writing library                : libebml v1.3.10 + libmatroska v1.5.2

Video
ID                             : 1
Format                         : AVC
Format/Info                    : Advanced Video Codec
Format profile                 : Main@L4
Format settings                : CABAC / 3 Ref Frames
Format settings, CABAC         : Yes
Format settings, Reference fra : 3 frames
Codec ID                       : V_MPEG4/ISO/AVC
Duration                       : 2 h 9 min
Bit rate mode                  : Variable
Bit rate                       : 2 991 kb/s
Nominal bit rate               : 3 661 kb/s
Maximum bit rate               : 5 745 kb/s
Width                          : 1 920 pixels
Height                         : 1 080 pixels
Display aspect ratio           : 16:9
Frame rate mode                : Constant
Frame rate                     : 24.000 FPS
Color space                    : YUV
Chroma subsampling             : 4:2:0
Bit depth                      : 8 bits
Scan type                      : Progressive
Bits/(Pixel*Frame)             : 0.060
Stream size                    : 2.71 GiB (79%)
Writing library                : x264 core 148 r2724 dbe0335
Encoding settings              : cabac=1 / ref=3 / deblock=1:0:0 / analyse=0x1:0x111 / me=umh / subme=10 / psy=1 / psy_rd=1.00:0.00 / mixed_ref=1 / me_range=24 / chroma_me=1 / trellis=2 / 8x8dct=0 / cqm=0 / deadzone=21,11 / fast_pskip=1 / chroma_qp_offset=-2 / threads=8 / lookahead_threads=1 / sliced_threads=0 / nr=0 / decimate=1 / interlaced=0 / bluray_compat=0 / stitchable=1 / constrained_intra=0 / bframes=2 / b_pyramid=0 / b_adapt=2 / b_bias=0 / direct=3 / weightb=1 / open_gop=0 / weightp=2 / keyint=250 / keyint_min=24 / scenecut=0 / intra_refresh=0 / rc_lookahead=48 / rc=2pass / mbtree=1 / bitrate=3661 / ratetol=1.0 / qcomp=0.50 / qpmin=6 / qpmax=51 / qpstep=4 / cplxblur=20.0 / qblur=0.5 / vbv_maxrate=5745 / vbv_bufsize=7660 / nal_hrd=vbr / filler=0 / ip_ratio=1.40 / aq=1:1.00
Default                        : Yes
Forced                         : No

Audio
ID                             : 2
Format                         : E-AC-3 JOC
Format/Info                    : Enhanced AC-3 with Joint Object Coding
Commercial name                : Dolby Digital Plus with Dolby Atmos
Codec ID                       : A_EAC3
Duration                       : 2 h 9 min
Bit rate mode                  : Constant
Bit rate                       : 768 kb/s
Channel(s)                     : 6 channels
Channel layout                 : L R C LFE Ls Rs
Sampling rate                  : 48.0 kHz
Frame rate                     : 31.250 FPS (1536 SPF)
Compression mode               : Lossy
Stream size                    : 712 MiB (20%)
Title                          : English
Language                       : English
Service kind                   : Complete Main
Default                        : No
Forced                         : No
Complexity index               : 16
Number of dynamic objects      : 15
Bed channel count              : 1 channel
Bed channel configuration      : LFE

Text #1
ID                             : 3
Format                         : UTF-8
Codec ID                       : S_TEXT/UTF8
Codec ID/Info                  : UTF-8 Plain Text
Duration                       : 2 h 2 min
Bit rate                       : 82 b/s
Count of elements              : 1761
Stream size                    : 74.3 KiB (0%)
Title                          : English
Language                       : English
Default                        : No
Forced                         : No

Text #2
ID                             : 4
Format                         : UTF-8
Codec ID                       : S_TEXT/UTF8
Codec ID/Info                  : UTF-8 Plain Text
Duration                       : 1 h 49 min
Bit rate                       : 5 b/s
Count of elements              : 150
Stream size                    : 4.05 KiB (0%)
Title                          : Forced
Language                       : English
Default                        : No
Forced                         : Yes

Text #3
ID                             : 5
Format                         : UTF-8
Codec ID                       : S_TEXT/UTF8
Codec ID/Info                  : UTF-8 Plain Text
Duration                       : 2 h 7 min
Bit rate                       : 86 b/s
Count of elements              : 1526
Stream size                    : 81.2 KiB (0%)
Title                          : Arabic
Language                       : Arabic
Default                        : No
Forced                         : No

Text #4
ID                             : 6
Format                         : UTF-8
Codec ID                       : S_TEXT/UTF8
Codec ID/Info                  : UTF-8 Plain Text
Duration                       : 2 h 7 min
Bit rate                       : 55 b/s
Count of elements              : 1526
Stream size                    : 52.0 KiB (0%)
Title                          : Chinese Simplified
Language                       : Chinese
Default                        : No
Forced                         : No

Text #5
ID                             : 7
Format                         : UTF-8
Codec ID                       : S_TEXT/UTF8
Codec ID/Info                  : UTF-8 Plain Text
Duration                       : 2 h 7 min
Bit rate                       : 49 b/s
Count of elements              : 1524
Stream size                    : 46.6 KiB (0%)
Title                          : Chinese Traditional
Language                       : Chinese
Default                        : No
Forced                         : No

Text #6
ID                             : 8
Format                         : UTF-8
Codec ID                       : S_TEXT/UTF8
Codec ID/Info                  : UTF-8 Plain Text
Duration                       : 2 h 7 min
Bit rate                       : 44 b/s
Count of elements              : 1512
Stream size                    : 41.8 KiB (0%)
Title                          : Croatian
Language                       : Croatian
Default                        : No
Forced                         : No

Text #7
ID                             : 9
Format                         : UTF-8
Codec ID                       : S_TEXT/UTF8
Codec ID/Info                  : UTF-8 Plain Text
Duration                       : 2 h 2 min
Bit rate                       : 50 b/s
Count of elements              : 1522
Stream size                    : 45.5 KiB (0%)
Title                          : Czech
Language                       : Czech
Default                        : No
Forced                         : No

Text #8
ID                             : 10
Format                         : UTF-8
Codec ID                       : S_TEXT/UTF8
Codec ID/Info                  : UTF-8 Plain Text
Duration                       : 2 h 7 min
Bit rate                       : 46 b/s
Count of elements              : 1511
Stream size                    : 43.2 KiB (0%)
Title                          : Danish
Language                       : Danish
Default                        : No
Forced                         : No

Text #9
ID                             : 11
Format                         : UTF-8
Codec ID                       : S_TEXT/UTF8
Codec ID/Info                  : UTF-8 Plain Text
Duration                       : 2 h 7 min
Bit rate                       : 42 b/s
Count of elements              : 1470
Stream size                    : 39.4 KiB (0%)
Title                          : Dutch
Language                       : Dutch
Default                        : No
Forced                         : No

Text #10
ID                             : 12
Format                         : UTF-8
Codec ID                       : S_TEXT/UTF8
Codec ID/Info                  : UTF-8 Plain Text
Duration                       : 2 h 7 min
Bit rate                       : 44 b/s
Count of elements              : 1506
Stream size                    : 41.2 KiB (0%)
Title                          : Finnish
Language                       : Finnish
Default                        : No
Forced                         : No

Text #11
ID                             : 13
Format                         : UTF-8
Codec ID                       : S_TEXT/UTF8
Codec ID/Info                  : UTF-8 Plain Text
Duration                       : 2 h 7 min
Bit rate                       : 44 b/s
Count of elements              : 1422
Stream size                    : 42.0 KiB (0%)
Title                          : French
Language                       : French
Default                        : No
Forced                         : No

Text #12
ID                             : 14
Format                         : UTF-8
Codec ID                       : S_TEXT/UTF8
Codec ID/Info                  : UTF-8 Plain Text
Duration                       : 2 h 7 min
Bit rate                       : 46 b/s
Count of elements              : 1437
Stream size                    : 43.6 KiB (0%)
Title                          : German
Language                       : German
Default                        : No
Forced                         : No

Text #13
ID                             : 15
Format                         : UTF-8
Codec ID                       : S_TEXT/UTF8
Codec ID/Info                  : UTF-8 Plain Text
Duration                       : 2 h 7 min
Bit rate                       : 82 b/s
Count of elements              : 1524
Stream size                    : 77.5 KiB (0%)
Title                          : Greek
Language                       : Greek
Default                        : No
Forced                         : No

Text #14
ID                             : 16
Format                         : UTF-8
Codec ID                       : S_TEXT/UTF8
Codec ID/Info                  : UTF-8 Plain Text
Duration                       : 2 h 7 min
Bit rate                       : 72 b/s
Count of elements              : 1526
Stream size                    : 67.5 KiB (0%)
Title                          : Hebrew
Language                       : Hebrew
Default                        : No
Forced                         : No

Text #15
ID                             : 17
Format                         : UTF-8
Codec ID                       : S_TEXT/UTF8
Codec ID/Info                  : UTF-8 Plain Text
Duration                       : 2 h 7 min
Bit rate                       : 47 b/s
Count of elements              : 1514
Stream size                    : 44.4 KiB (0%)
Title                          : Hungarian
Language                       : Hungarian
Default                        : No
Forced                         : No

Text #16
ID                             : 18
Format                         : UTF-8
Codec ID                       : S_TEXT/UTF8
Codec ID/Info                  : UTF-8 Plain Text
Duration                       : 2 h 7 min
Bit rate                       : 46 b/s
Count of elements              : 1510
Stream size                    : 43.8 KiB (0%)
Title                          : Indonesian
Language                       : Indonesian
Default                        : No
Forced                         : No

Text #17
ID                             : 19
Format                         : UTF-8
Codec ID                       : S_TEXT/UTF8
Codec ID/Info                  : UTF-8 Plain Text
Duration                       : 2 h 7 min
Bit rate                       : 46 b/s
Count of elements              : 1484
Stream size                    : 43.6 KiB (0%)
Title                          : Italian
Language                       : Italian
Default                        : No
Forced                         : No

Text #18
ID                             : 20
Format                         : UTF-8
Codec ID                       : S_TEXT/UTF8
Codec ID/Info                  : UTF-8 Plain Text
Duration                       : 2 h 7 min
Bit rate                       : 51 b/s
Count of elements              : 1574
Stream size                    : 47.9 KiB (0%)
Title                          : Japanese
Language                       : Japanese
Default                        : No
Forced                         : No

Text #19
ID                             : 21
Format                         : UTF-8
Codec ID                       : S_TEXT/UTF8
Codec ID/Info                  : UTF-8 Plain Text
Duration                       : 2 h 7 min
Bit rate                       : 62 b/s
Count of elements              : 1527
Stream size                    : 58.5 KiB (0%)
Title                          : Korean
Language                       : Korean
Default                        : No
Forced                         : No

Text #20
ID                             : 22
Format                         : UTF-8
Codec ID                       : S_TEXT/UTF8
Codec ID/Info                  : UTF-8 Plain Text
Duration                       : 2 h 7 min
Bit rate                       : 48 b/s
Count of elements              : 1500
Stream size                    : 45.0 KiB (0%)
Title                          : Malay
Language                       : Malay
Default                        : No
Forced                         : No

Text #21
ID                             : 23
Format                         : UTF-8
Codec ID                       : S_TEXT/UTF8
Codec ID/Info                  : UTF-8 Plain Text
Duration                       : 2 h 7 min
Bit rate                       : 45 b/s
Count of elements              : 1509
Stream size                    : 42.8 KiB (0%)
Title                          : Norwegian Bokmal
Language                       : Norwegian Bokmal
Default                        : No
Forced                         : No

Text #22
ID                             : 24
Format                         : UTF-8
Codec ID                       : S_TEXT/UTF8
Codec ID/Info                  : UTF-8 Plain Text
Duration                       : 2 h 7 min
Bit rate                       : 44 b/s
Count of elements              : 1504
Stream size                    : 41.9 KiB (0%)
Title                          : Polish
Language                       : Polish
Default                        : No
Forced                         : No

Text #23
ID                             : 25
Format                         : UTF-8
Codec ID                       : S_TEXT/UTF8
Codec ID/Info                  : UTF-8 Plain Text
Duration                       : 2 h 7 min
Bit rate                       : 49 b/s
Count of elements              : 1505
Stream size                    : 46.1 KiB (0%)
Title                          : Portuguese
Language                       : Portuguese
Default                        : No
Forced                         : No

Text #24
ID                             : 26
Format                         : UTF-8
Codec ID                       : S_TEXT/UTF8
Codec ID/Info                  : UTF-8 Plain Text
Duration                       : 2 h 7 min
Bit rate                       : 49 b/s
Count of elements              : 1465
Stream size                    : 46.1 KiB (0%)
Title                          : Brazilian Portuguese
Language                       : Portuguese
Default                        : No
Forced                         : No

Text #25
ID                             : 27
Format                         : UTF-8
Codec ID                       : S_TEXT/UTF8
Codec ID/Info                  : UTF-8 Plain Text
Duration                       : 2 h 7 min
Bit rate                       : 55 b/s
Count of elements              : 1509
Stream size                    : 52.2 KiB (0%)
Title                          : Romanian
Language                       : Romanian
Default                        : No
Forced                         : No

Text #26
ID                             : 28
Format                         : UTF-8
Codec ID                       : S_TEXT/UTF8
Codec ID/Info                  : UTF-8 Plain Text
Duration                       : 2 h 7 min
Bit rate                       : 77 b/s
Count of elements              : 1514
Stream size                    : 72.6 KiB (0%)
Title                          : Russian
Language                       : Russian
Default                        : No
Forced                         : No

Text #27
ID                             : 29
Format                         : UTF-8
Codec ID                       : S_TEXT/UTF8
Codec ID/Info                  : UTF-8 Plain Text
Duration                       : 2 h 7 min
Bit rate                       : 48 b/s
Count of elements              : 1505
Stream size                    : 45.1 KiB (0%)
Title                          : Spanish
Language                       : Spanish
Default                        : No
Forced                         : No

Text #28
ID                             : 30
Format                         : UTF-8
Codec ID                       : S_TEXT/UTF8
Codec ID/Info                  : UTF-8 Plain Text
Duration                       : 2 h 7 min
Bit rate                       : 46 b/s
Count of elements              : 1511
Stream size                    : 43.9 KiB (0%)
Title                          : European Spanish
Language                       : Spanish
Default                        : No
Forced                         : No

Text #29
ID                             : 31
Format                         : UTF-8
Codec ID                       : S_TEXT/UTF8
Codec ID/Info                  : UTF-8 Plain Text
Duration                       : 2 h 7 min
Bit rate                       : 44 b/s
Count of elements              : 1506
Stream size                    : 41.6 KiB (0%)
Title                          : Swedish
Language                       : Swedish
Default                        : No
Forced                         : No

Text #30
ID                             : 32
Format                         : UTF-8
Codec ID                       : S_TEXT/UTF8
Codec ID/Info                  : UTF-8 Plain Text
Duration                       : 2 h 7 min
Bit rate                       : 131 b/s
Count of elements              : 1530
Stream size                    : 123 KiB (0%)
Title                          : Thai
Language                       : Thai
Default                        : No
Forced                         : No

Text #31
ID                             : 33
Format                         : UTF-8
Codec ID                       : S_TEXT/UTF8
Codec ID/Info                  : UTF-8 Plain Text
Duration                       : 2 h 7 min
Bit rate                       : 49 b/s
Count of elements              : 1516
Stream size                    : 46.0 KiB (0%)
Title                          : Turkish
Language                       : Turkish
Default                        : No
Forced                         : No

Text #32
ID                             : 34
Format                         : UTF-8
Codec ID                       : S_TEXT/UTF8
Codec ID/Info                  : UTF-8 Plain Text
Duration                       : 2 h 2 min
Bit rate                       : 81 b/s
Count of elements              : 1520
Stream size                    : 73.0 KiB (0%)
Title                          : Ukrainian
Language                       : Ukrainian
Default                        : No
Forced                         : No

Text #33
ID                             : 35
Format                         : UTF-8
Codec ID                       : S_TEXT/UTF8
Codec ID/Info                  : UTF-8 Plain Text
Duration                       : 2 h 7 min
Bit rate                       : 65 b/s
Count of elements              : 1510
Stream size                    : 60.9 KiB (0%)
Title                          : Vietnamese
Language                       : Vietnamese
Default                        : No
Forced                         : No

视频截图

下载地址

神偷军团[中文字幕].Army.of.Thieves.2021.NF.1080p.WEB-DL.DDP5.1.H264-10006@BBQDDQ.COM 3.41GB:magnet:?xt=urn:btih:5FA803EFC587BE5E2EB76B4DA1F52F24B3F972CD

神偷军团.Army.of.Thieves.2021.HD1080P.X264.AAC.English.CHS.Mp4er 3.01GB:magnet:?xt=urn:btih:B51362D467E3764B069C629926ACCDCD74BF98CA

留下评论

Secured By miniOrange