[2021] [香港] [动作] 怒火·重案[国粤双语中字][WEB-1080p/4K]

%title插图%num

◎译  名 怒火·重案 / 怒火重案 / 怒火战 / 火拼 / Crossfire / Raging Fire
◎片  名 怒火
◎年  代 2021
◎产  地 中国香港 / 中国大陆
◎类  别 动作 / 犯罪
◎语  言 粤语 / 汉语普通话
◎上映日期 2021-07-30(中国大陆) / 2021-08-19(中国香港)
◎IMDb链接 https://www.imdb.com/title/tt8165192/
◎豆瓣评分 7.5/10 (264429人评价)
◎豆瓣链接 https://movie.douban.com/subject/30174085/
◎片  长 128分钟
◎导  演 陈木胜 Benny Chan (id:1274293)
◎编  剧 陈木胜 Benny Chan (id:1274293)
      凌伟骏 Ryan Wai-Chun Ling (id:1433091)
      唐耀良 Yiu-leung Tong (id:1364033)
◎演  员 甄子丹 Donnie Yen (id:1025194)
      谢霆锋 Nicholas Tse (id:1050053)
      秦岚 Lan Qin (id:1274294)
      谭耀文 Patrick Tam (id:1033280)
      黄德斌 Tak-bun Wong (id:1274442)
      吴浩康 Deep Ng (id:1313361)
      何珮瑜 Jeana Ho (id:1316213)
      杨天宇 Angus Yeung (id:1387692)
      汤君慈 Bruce Tong (id:1339998)
      麦亨利 Henry Mai (id:1377803)
      喻亢 Kang Yu (id:1339113)
      张文杰 Man Kit Cheung (id:1336383)
      胡子彤 Tony Tsz-Tung Wu (id:1362877)
      吕良伟 Ray Lui (id:1037706)
      任达华 Simon Yam (id:1031194)
      袁富华 Fu-wah Yuen (id:1359508)
      林国斌 Ben Lam (id:1289293)
      卢惠光 Ken Lo (id:1032633)
      陈家乐 Carlos Chan (id:1275972)
      张国强 Kwok Keung Cheung (id:1274568)
      汤怡 Kathy Tong (id:1314475)
      高战 Chris Collins (id:1379355)
      辛格·哈提汗·比托 Singh Hartihan Bitto (id:1333958)
      克里斯·柯林斯 K.C. Collins (id:1338050)
      郭政鸿 Jing-hung Kwok (id:1044122)
      麦长青 Cheung-Ching Mak (id:1274580)
      陈木胜 Benny Chan (id:1274293)
      甄子丹 Donnie Yen (id:1025194)
      邵剑秋 Kim-Chau Shiu (id:1413263)
      陈一奇 Yiqi Chen (id:1446359)
      程武 Wu Cheng (id:1406349)
      杨受成 Albert Yeung (id:1313455)
      高莉 Anna Gao (id:1432407)
      郑志昊 Zhihao Zheng (id:1397531)
      李绮雯 Yee-Man Lee (id:1353241)
      杨雪雯 (id:1450635)
      区椲麟 (id:1450636)
      梁琳 Lin Liang (id:1400716)
      黎子良 Bernard Lai (id:1438022)
      林明杰 Eric Lin (id:1374637)
      张博 (id:1450637)
      张康达 Hong Tat Cheung (id:1395690)
      谢炀 (id:1450638)

◎标  签 警匪 / 中国香港 / 动作 / 枪战 / 犯罪 / 2021 / 悬疑 / 中国大陆

◎简  介
  重案组布网围剿国际毒枭,突然杀出一组蒙面悍匪“黑吃黑”,更冷血屠杀众警察。重案组督察张崇邦(甄子丹 饰)亲睹战友被杀,深入追查发现,悍匪首领竟是昔日战友邱刚敖(谢霆锋 饰)。原来敖也曾是警队明日之星,而将敖推向罪恶深渊的人,却正是邦。宿命令二人再次纠缠,一切恩怨张崇邦如何作出了断……

视频信息

General
Unique ID                      : 9616212023306184950892537773813773733 (0x73C03DB8B46332005EAFA67D6E1B5A5)
Complete name                  : E:\【更多高清电影访问 www.BBQDDQ.com】怒火·重案[国粤配音+中文字幕].Raging.Fire.2021.WEB-DL.4K.H265.DDP.5.1-10015@BBQDDQ.COM 6.14GB\Raging Fire 2021 WEB-DL 4K H265 DDP 5.1-10015@BBQDDQ.COM.mkv
Format                         : Matroska
Format version                 : Version 4
File size                      : 6.14 GiB
Duration                       : 2 h 8 min
Overall bit rate               : 6 843 kb/s
Encoded date                   : UTC 2021-10-01 02:10:01
Writing application            : mkvmerge v58.0.0 ('Supper's Ready') 64-bit
Writing library                : libebml v1.4.2 + libmatroska v1.6.4

Video
ID                             : 1
Format                         : HEVC
Format/Info                    : High Efficiency Video Coding
Format profile                 : Main@L5@Main
Codec ID                       : V_MPEGH/ISO/HEVC
Duration                       : 2 h 8 min
Bit rate                       : 5 948 kb/s
Width                          : 3 840 pixels
Height                         : 1 626 pixels
Display aspect ratio           : 2.35:1
Frame rate mode                : Constant
Frame rate                     : 25.000 FPS
Color space                    : YUV
Chroma subsampling             : 4:2:0
Bit depth                      : 8 bits
Bits/(Pixel*Frame)             : 0.038
Stream size                    : 5.34 GiB (87%)
Writing library                : HW265_Code
Default                        : Yes
Forced                         : No
Color range                    : Limited
Color primaries                : BT.709
Transfer characteristics       : BT.709
Matrix coefficients            : BT.709

Audio #1
ID                             : 2
Format                         : E-AC-3
Format/Info                    : Enhanced AC-3
Commercial name                : Dolby Digital Plus
Codec ID                       : A_EAC3
Duration                       : 2 h 8 min
Bit rate mode                  : Constant
Bit rate                       : 256 kb/s
Channel(s)                     : 6 channels
Channel layout                 : L R C LFE Ls Rs
Sampling rate                  : 48.0 kHz
Frame rate                     : 31.250 FPS (1536 SPF)
Compression mode               : Lossy
Stream size                    : 235 MiB (4%)
Title                          : 国语 DDP 5.1
Language                       : Chinese
Service kind                   : Complete Main
Default                        : Yes
Forced                         : No

Audio #2
ID                             : 3
Format                         : AAC LC
Format/Info                    : Advanced Audio Codec Low Complexity
Codec ID                       : A_AAC-2
Duration                       : 2 h 8 min
Bit rate                       : 192 kb/s
Channel(s)                     : 2 channels
Channel layout                 : L R
Sampling rate                  : 48.0 kHz
Frame rate                     : 46.875 FPS (1024 SPF)
Compression mode               : Lossy
Stream size                    : 174 MiB (3%)
Title                          : 国语 AAC 2.0
Language                       : Chinese
Default                        : No
Forced                         : No

Audio #3
ID                             : 4
Format                         : E-AC-3
Format/Info                    : Enhanced AC-3
Commercial name                : Dolby Digital Plus
Codec ID                       : A_EAC3
Duration                       : 2 h 8 min
Bit rate mode                  : Constant
Bit rate                       : 256 kb/s
Channel(s)                     : 6 channels
Channel layout                 : L R C LFE Ls Rs
Sampling rate                  : 48.0 kHz
Frame rate                     : 31.250 FPS (1536 SPF)
Compression mode               : Lossy
Stream size                    : 235 MiB (4%)
Title                          : 粤语 DDP 5.1
Language                       : Chinese
Service kind                   : Complete Main
Default                        : No
Forced                         : No

Audio #4
ID                             : 5
Format                         : AAC LC
Format/Info                    : Advanced Audio Codec Low Complexity
Codec ID                       : A_AAC-2
Duration                       : 2 h 8 min
Bit rate                       : 192 kb/s
Channel(s)                     : 2 channels
Channel layout                 : L R
Sampling rate                  : 48.0 kHz
Frame rate                     : 46.875 FPS (1024 SPF)
Compression mode               : Lossy
Stream size                    : 174 MiB (3%)
Title                          : 粤语 AAC 2.0
Language                       : Chinese
Default                        : No
Forced                         : No

视频截图

下载地址

怒火·重案.2021.HD1080p.国粤双语中字 3.31GB:magnet:?xt=urn:btih:366DBA700A1EC3683D62557886B76DB0BDDEF297

怒火·重案[国语配音+中文字幕].Raging.Fire.2021.1080p.WEB-DL.H264.DDP5.1.2Audio-10006@BBQDDQ.COM 2.26GB:magnet:?xt=urn:btih:F7EB0A3778CC53425231E05BE98B9E3492361042

怒火·重案[国粤配音+中文字幕].Raging.Fire.2021.WEB-DL.4K.H265.DDP.5.1-10015@BBQDDQ.COM 6.14GB:magnet:?xt=urn:btih:3F78C823F8AF9AD55B2B8638580C31724438D1D7

留下评论

Secured By miniOrange