[2019中国剧情爱情]《白蛇传·情》[粤语中字][WEB-1080p/4k]

%title插图%num

◎译  名 白蛇传·情 / White Snake
◎年  代 2019
◎产  地 中国大陆
◎类  别 剧情 / 爱情 / 戏曲
◎语  言 粤语
◎上映日期 2021-05-20(中国大陆) / 2019-10-18(平遥电影展)
◎IMDb链接 https://www.imdb.com/title/tt11151998/
◎豆瓣评分 8.1/10 (28364人评价)
◎豆瓣链接 https://movie.douban.com/subject/34825976/
◎片  长 101分钟
◎导  演 张险峰 Xianfeng Zhang (id:1366732)
◎编  剧 莫非  (id:1430957)
◎演  员 曾小敏 Xiaomin Zeng (id:1387516)
       文汝清  (id:1430958)
       朱红星 Hongxing Zhu (id:1430959)
       王燕飞 Yanfei Wang (id:1387519)
       王垂林 Chuilin Wang (id:1446629)
       曾小敏 Xiaomin Zeng (id:1387516)
       杨卫星  (id:1456345)
       汪一洋  (id:1456347)
       钱永红 Yonghong Qian (id:1456349)
       杨树  (id:1456350)
       黎鹤  (id:1456351)
       李钊  (id:1456352)
       陈捷  (id:1456353)
       黄昌宁  (id:1456354)
       包世宏 Shihong Bao (id:1345652)
       严云涛  (id:1456355)
       孙金华  (id:1456357)
       吕丹  (id:1456361)
       王勃  (id:1456362)
       唐海伟  (id:1456363)
       陈挥之  (id:1456371)
       陈征风 Chen Fong Chin (id:1456367)
       孙依群  (id:1456368)
       李金辉 Jin-hui Li (id:1331943)
       王晓霞 Xiaoxia Wang (id:1456372)
       许丹华 Dan-Wah Hui (id:1402531)
       刘佳笳  (id:1456358)
       邱晴  (id:1456359)
       梁柱  (id:1456360)
        Glenn Wilson (id:1221368)
       吴铁雄  (id:1456369)
       李承济 Seung Jae Lee (id:1456370)

◎标  签 中国美学 / 戏曲电影 / 粤剧电影 / 粤剧 / 戏曲 / 中国 / 浪漫爱情系 / 传说

◎简  介
  首部4K全景声粤剧电影,取材自民间故事《白蛇传》,那白蛇的故事,远久流传…
  白素贞修炼千年,只为人间寻那许仙,再续兰因前缘。
  说什么人妖殊途,法理难容此爱恋。昆仑雪寒金山水漫,白素贞拼尽所有,只求天地人心情真一片。
  纵天谴又如何?再困塔里千年亦甘愿!
  彼此守望,哪天,佛陀花开,你我再见!

◎获奖情况 (共3项)
  第32届中国电影金鸡奖 (2019)
  最佳戏曲片(提名)

第2届海南岛国际电影节 (2019)
  金椰奖 最佳影片奖(提名)
  金椰奖 最佳技术奖

视频信息

General
Complete name                  : E:\【更多高清电影访问 www.BBQDDQ.com】白蛇传·情[粤语音轨+中文字幕].White.Snake.2019.2160p.WEB-DL.H265.AAC-10006@BBQDDQ.COM 5.87GB\白蛇传·情.White.Snake.2019.2160p.WEB-DL.H265.AAC-10006@BBQDDQ.COM.mp4
Format                         : MPEG-4
Format profile                 : Base Media
Codec ID                       : isom (isom/iso2/mp41)
File size                      : 5.86 GiB
Duration                       : 1 h 41 min
Overall bit rate               : 8 238 kb/s
Movie name                     : 白蛇传·情
Description                    : 首部4K全景声粤剧电影,取材自民间故事《白蛇传》,那白蛇的故事,远久流传...白素贞修炼千年,只为人间寻那许仙,再续兰因前缘。说什么人妖殊途,法理难容此爱恋。昆仑雪寒金山水漫,白素贞拼尽所有,只求天地人心情真一片。纵天谴又如何?再困塔里千年亦甘愿!彼此守望,哪天,佛陀花开,你我再见!
Writing application            : Lavf58.17.103
Cover                          : Yes

Video
ID                             : 1
Format                         : HEVC
Format/Info                    : High Efficiency Video Coding
Format profile                 : Main@L5.1@Main
Codec ID                       : hev1
Codec ID/Info                  : High Efficiency Video Coding
Duration                       : 1 h 41 min
Bit rate                       : 7 902 kb/s
Width                          : 4 096 pixels
Height                         : 1 716 pixels
Display aspect ratio           : 2.40:1
Frame rate mode                : Variable
Frame rate                     : 24.000 FPS
Minimum frame rate             : 23.810 FPS
Maximum frame rate             : 24.390 FPS
Color space                    : YUV
Chroma subsampling             : 4:2:0
Bit depth                      : 8 bits
Bits/(Pixel*Frame)             : 0.047
Stream size                    : 5.63 GiB (96%)
Color range                    : Limited
Color primaries                : BT.709
Transfer characteristics       : BT.709
Matrix coefficients            : BT.709
Codec configuration box        : hvcC

Audio
ID                             : 2
Format                         : AAC LC
Format/Info                    : Advanced Audio Codec Low Complexity
Codec ID                       : mp4a-40-2
Duration                       : 1 h 41 min
Bit rate mode                  : Constant
Bit rate                       : 328 kb/s
Channel(s)                     : 2 channels
Channel layout                 : L R
Sampling rate                  : 48.0 kHz
Frame rate                     : 46.875 FPS (1024 SPF)
Compression mode               : Lossy
Stream size                    : 239 MiB (4%)
Default                        : Yes
Alternate group                : 1

视频截图

下载地址

白蛇传·情[粤语音轨+中文字幕].White.Snake.2019.2160p.WEB-DL.H265.AAC-10006@BBQDDQ.COM 5.87GB:magnet:?xt=urn:btih:9D14714B8043AFAE1F64611B10C0D2170E3399B6

白蛇传·情[粤语音轨+中文字幕].White.Snake.2019.1080p.WEB-DL.H264.AAC-10006@BBQDDQ.COM 3.97GB:magnet:?xt=urn:btih:F8CCC1E04489DDE4DB2449FB627E5A473E9A8B9F

留下评论

Secured By miniOrange