上海美术制片厂高清修复版不完全合集.1955-1999.国语原声1080P.200G+

原贴:https://club.coovm.com/159545-1.htm

上海美术电影制片厂(简称上美影),成立于1957年4月,前身是东北电影制片厂卡通股。是中国历史最长、片库量最大、拥有知识产权最多的美术电影制片基地。建厂后共摄制美术片500多部,创作了《大闹天宫》《哪吒闹海》《天书奇谭》《黑猫警长》《葫芦兄弟》《宝莲灯》等伴随了几代中国人成长的经典作品,获得了400多项国内外大奖,以动画“中国学派”享誉国际。

目录

东郭先生(1955)798MB

骄傲的将军(1956)1.8GB

渔童(1959)2GB

小蝌蚪找妈妈(1960)1.3GB

人参娃娃(1962)2.2GB

没头脑和不高兴(1962)1.8GB

等明天(1962)1.1GB

牧笛 (1963)1.8GB

半夜鸡叫(1964)1.2GB

狐狸打猎人(1978)1.5GB

哪吒闹海(1979)5.2GB

愚人买鞋(1979)841MB

阿凡提(木偶) (1979)【14集】22.9GB

熊猫百货商店(1979)1.4GB

好猫咪咪(1979)1.7GB

老狼请客(1980)894MB

雪孩子(1980)1.8GB

三个和尚(1980)1.7GB

张飞审瓜(1980)2.1GB

三只狼 (1980)781MB

我的朋友小海豚(1980)1.3GB

人参果(1981)3.8GB

真假李逵(1981)1.6GB

南郭先生(1981)1.5GB

崂山道士(1981)2.2GB

九色鹿(1981)1.8GB

猴子捞月(1981)915MB

抬驴(1981)1.2GB

鹿铃(1982)1.7GB

曹冲称象(1982)1.4GB

狼来了(1982)1.4GB

老虎学艺(1982)1.6GB

小熊猫学木匠(1982)1.4GB

小八戒(1983)1.7GB

鹬蚌相争(1983)884MB

猴子钓鱼(1983)1.2GB

小松鼠理发师(1983)698MB

狐狸送葡萄(1983)1.5GB

三毛流浪记 (1984)【4集】3.5GB

黑猫警长(1984)【5集】7.9GB

抢枕头(1985)1.6GB

葫芦兄弟(1986)【13集】10.9GB

超级肥皂(1986)524MB

邋遢大王奇遇记(1987)【13集】10.9GB

不射之射 (1988)1.8GB

皮皮的故事 (1988)【10集】4.2GB

螳螂捕蝉(1988)435MB

山水情(1988)1.4GB

大盗贼 (1989)【8集】19GB

西游记-五件宝贝 (1989)1.8GB

舒克和贝塔(1989)【13集】22.6GB

魔方大厦(1990)【10集】16.8GB

葫芦小金刚 (1991)【6集】9.5GB

镜花缘(1991)【4集】6.6GB

怪老头(1992)【4集】7.1GB

小和尚之游方僧(1993)903MB

特别车队(1993)【13集】19.6GB

日月潭(1996)1.7GB

美术电影

金猴降妖(1985)6.4GB

宝莲灯(1999)6.1GB

以上为上海美术制片厂不完全名单(有的影片时代久远,谁也确定不了是否完全,所以尽量谨慎)

视频信息

General
Unique ID                      : 167458774565497473617166234222788989455 (0x7DFB6307DAE392300FF8D40EF57DD20F)
Complete name                  : D:\BaiduNetdiskDownload\上海美术制片厂高清修复版不完全合集.1950-2010.国语原声1080P.200G+\【1964】dntg.mp4
Format                         : Matroska
Format version                 : Version 4
File size                      : 19.2 GiB
Duration                       : 1 h 32 min
Overall bit rate mode          : Variable
Overall bit rate               : 29.7 Mb/s
Encoded date                   : UTC 2020-10-09 12:28:39
Writing application            : mkvmerge v46.0.0 ('No Deeper Escape') 64-bit
Writing library                : libebml v1.3.10 + libmatroska v1.5.2
FileExtension_Invalid          : mkv mk3d mka mks

Video
ID                             : 1
Format                         : AVC
Format/Info                    : Advanced Video Codec
Format profile                 : High@L4.1
Format settings                : CABAC / 4 Ref Frames
Format settings, CABAC         : Yes
Format settings, Reference fra : 4 frames
Codec ID                       : V_MPEG4/ISO/AVC
Duration                       : 1 h 32 min
Bit rate mode                  : Variable
Bit rate                       : 24.0 Mb/s
Maximum bit rate               : 35.0 Mb/s
Width                          : 1 920 pixels
Height                         : 1 080 pixels
Display aspect ratio           : 16:9
Frame rate mode                : Constant
Frame rate                     : 23.976 (24000/1001) FPS
Standard                       : NTSC
Color space                    : YUV
Chroma subsampling             : 4:2:0
Bit depth                      : 8 bits
Scan type                      : Progressive
Bits/(Pixel*Frame)             : 0.482
Stream size                    : 15.4 GiB (80%)
Title                          : 童年印象
Default                        : Yes
Forced                         : No
Color range                    : Limited
Color primaries                : BT.709
Transfer characteristics       : BT.709
Matrix coefficients            : BT.709

Audio #1
ID                             : 2
Format                         : MLP FBA
Format/Info                    : Meridian Lossless Packing FBA
Commercial name                : Dolby TrueHD
Codec ID                       : A_TRUEHD
Duration                       : 1 h 32 min
Bit rate mode                  : Variable
Bit rate                       : 5 074 kb/s
Maximum bit rate               : 9 324 kb/s
Channel(s)                     : 8 channels
Channel layout                 : L R C LFE Ls Rs Lb Rb
Sampling rate                  : 96.0 kHz
Frame rate                     : 1 200.000 FPS (80 SPF)
Compression mode               : Lossless
Stream size                    : 3.27 GiB (17%)
Title                          : 国语7.1
Language                       : Chinese
Default                        : Yes
Forced                         : Yes

Audio #2
ID                             : 3
Format                         : AC-3
Format/Info                    : Audio Coding 3
Commercial name                : Dolby Digital
Codec ID                       : A_AC3
Duration                       : 1 h 32 min
Bit rate mode                  : Constant
Bit rate                       : 640 kb/s
Channel(s)                     : 6 channels
Channel layout                 : L R C LFE Ls Rs
Sampling rate                  : 48.0 kHz
Frame rate                     : 31.250 FPS (1536 SPF)
Compression mode               : Lossy
Stream size                    : 423 MiB (2%)
Title                          : 国语5.1
Language                       : Chinese
Service kind                   : Complete Main
Default                        : No
Forced                         : No

Text #1
ID                             : 4
Format                         : PGS
Muxing mode                    : zlib
Codec ID                       : S_HDMV/PGS
Codec ID/Info                  : Picture based subtitle format used on BDs/HD-DVDs
Duration                       : 1 h 24 min
Bit rate                       : 13.1 kb/s
Count of elements              : 854
Stream size                    : 7.91 MiB (0%)
Title                          : 简体中字
Language                       : Chinese
Default                        : Yes
Forced                         : Yes

Text #2
ID                             : 5
Format                         : PGS
Muxing mode                    : zlib
Codec ID                       : S_HDMV/PGS
Codec ID/Info                  : Picture based subtitle format used on BDs/HD-DVDs
Duration                       : 1 h 24 min
Bit rate                       : 13.6 kb/s
Count of elements              : 854
Stream size                    : 8.17 MiB (0%)
Title                          : 繁体中字
Language                       : Chinese
Default                        : No
Forced                         : No

Text #3
ID                             : 6
Format                         : PGS
Muxing mode                    : zlib
Codec ID                       : S_HDMV/PGS
Codec ID/Info                  : Picture based subtitle format used on BDs/HD-DVDs
Duration                       : 1 h 24 min
Bit rate                       : 20.9 kb/s
Count of elements              : 854
Stream size                    : 12.6 MiB (0%)
Title                          : 英文
Language                       : English
Default                        : No
Forced                         : No

视频预览

下载地址

腾讯微云链接:https://share.weiyun.com/97LMIzUc 提取码:hefrod

备用下载

链接:https://pan.baidu.com/s/12n30vEX0H9EtZ2J1xhVR_A 提取码:07a4 解压缩后把后缀名改为mp4

留下评论

Secured By miniOrange