2021年献礼片资源合集[1080p/4k]

%title插图%num

2021年恰逢建党100周年,在此时间节点上,今年将有多部庆祝中国共产党成立100周年的献礼影片与观众见面。经历了《我和我的祖国》《我和我的家乡》等主旋律献礼片的口碑票房双丰收后,市场对今年的献礼片也有了更多期待,除了以中国共产党成立为背景的献礼片外,今年还将有多部以“抗疫”“抗美援朝”“奥运”为题材的献礼片待映。

电影主题出品公司导演上映日期
《1921》建党100年腾讯影业、上影集团、寰亚影业等黄建新、郑大圣7月1日
《革命者》建党100年光线影业徐展雄7月1日
《我和我的父辈》建党100年中影集团吴京、章子怡、徐峥、沈腾10月1日
《东极岛》建党100年东海电影集团、中影集团管虎、王竞待定
《密档》建党100年/郑大圣待定
《铁道英雄》抗日战争华谊兄弟、中影集团杨枫10月
《悬崖之上》抗日战争中影集团、上影集团、英皇影业、阿里影业等张艺谋4月30日
《长津湖》抗美援朝博纳影业、八一电影制片厂等陈凯歌、徐克、林超贤10月
《狙击手》抗美援朝光线影业张艺谋、张末10月
《中国医生》抗疫博纳影业、珠江电影集团、长江电影集团刘伟强7月9日
《战疫天使》抗疫/邱礼涛12月
《勇敢的你》抗疫礼想影业、启泰文化等赵宁宇、张华等待定
《检察风云》扫黑反腐最高人民检察院影视中心、华文映像、猫眼电影等麦兆辉待定
《猎狐行动》扫黑反腐上影集团、阿里影业等张立嘉待定
《绝地追击》缉毒爱奇艺影业邱礼涛待定
《我和我的奥运》体育竞技//待定
《中国乒乓》体育竞技恒业影业、爱奇艺影业邓超待定

1921

%title插图%num

◎译  名 1921 / 一九二一
◎年  代 2021
◎产  地 中国大陆
◎类  别 剧情 /
◎语  言 汉语普通话
◎上映日期 2021-07-01(中国大陆) / 2021-06-11(上海国际电影节)
◎IMDb链接 https://www.imdb.com/title/tt12624504/
◎豆瓣评分 6.7/10 (127842人评价)
◎豆瓣链接 https://movie.douban.com/subject/35125443/
◎片  长 137分钟
◎导  演 黄建新 Jianxin Huang (id:1019896)
      郑大圣 Dasheng Zheng (id:1314208)
◎编  剧 余曦 Xi Yu (id:1327440)
      黄建新 Jianxin Huang (id:1019896)
      赵宁宇 Ningyu Zhao (id:1275776)
◎演  员 黄轩 Xuan Huang (id:1276105)
      倪妮 Ni Ni (id:1315861)
      王仁君 Renjun Wang (id:1319834)
      刘昊然 Haoran Liu (id:1336305)
      袁文康 Wenkang Yuan (id:1274820)
      祖峰 Feng Zu (id:1313650)
      窦骁 Shawn Dou (id:1274225)
      张颂文 Songwen Zhang (id:1314329)
      刘家祎 Jiayi Liu (id:1397524)
      王俊凯 Karry Wang (id:1339594)
      王源 Roy Wang (id:1339808)
      欧豪 Hao Ou (id:1337644)
      韩东君 Elvis Han (id:1348542)
      张超 Juck Zhang (id:1325810)
      张云龙 Yunlong Zhang (id:1326059)
      胡先煦 Xianxu Hu (id:1329632)
      陈坤 Kun Chen (id:1053618)
      李晨 Chen Li (id:1274252)
      倪大红 Dahong Ni (id:1274306)
      田雨 Yu Tian (id:1316331)
      谢孟伟 Mengwei Xie (id:1314488)
      冯绍峰 Shaofeng Feng (id:1275721)
      刘诗诗 Shishi Liu (id:1274533)
      宋佳 Jia Song (id:1042341)
      宋轶 Yi Song (id:1319273)
      殷桃 Tao Yin (id:1275049)
      安泽豪 Zehao An (id:1318040)
      袁泉 Quan Yuan (id:1010504)
      周也 Ye Zhou (id:1412762)
      欧阳娜娜 Nana Ouyang (id:1336314)
      魏大勋 Daxun Wei (id:1314064)
      张雪迎 Xueying Zhang (id:1326897)
      萱萱 Xuanxuan (id:1456867)
      埃里克·迪恩 Eric Dane (id:1041105)
      乔什·怀特豪斯 Josh Whitehouse (id:1371387)
      奥田瑛二 Eiji Okuda (id:1033105)
      白石隼也 Shun’ya Shiraishi (id:1321042)
      池松壮亮 Sosuke Ikematsu (id:1009895)
      朱一龙 Yilong Zhu (id:1318883)
      白宇 Yu Bai (id:1337887)
      倪寒尽 Jinhan Ni (id:1401621)
      许凯 Kai Xu (id:1383033)
      张若昀 Ruoyun Zhang (id:1313867)
      张建亚 Jianya Zhang (id:1276057)
      赵露思 Lusi Zhao (id:1385770)
      钟楚曦 Elane Zhong (id:1357009)
      雷佳音 Jiayin Lei (id:1312940)
      郭子凡 Zifan Guo (id:1357225)
      欧阳卫熹 Weixi Ouyang (id:1442087)
      陈美伊 Meiyi Chen (id:1442086)
      胡连馨 Lianxin Hu (id:1422098)
      陈仟钰 Qianyu Chen (id:1442088)
      夏梦 Meng Xia (id:1425529)
      陈雨锶 Yusi Chen (id:1375964)
      俞灏明 Haoming Yu (id:1317315)
      王森 Sen Wang (id:1314632)
      谷嘉诚 Jason Gu (id:1356456)
      张宥浩 Youhao Zhang (id:1357957)
      赵弈钦 Yiqin Zhao (id:1363938)
      刘畅 Chang Liu (id:1344500)
      马天宇 Ray Ma (id:1312820)
      史彭元 Pengyuan Shi (id:1342395)
      陈龙 Long Chen (id:1314478)
      韩昊霖 Haolin Han (id:1396506)
      彭楚粤 Chuyue Peng (id:1360384)
      王锵 Qiang Wang (id:1381513)
      刘冬沁 Dongqin Liu (id:1354373)
      叶璇 Michelle Ye (id:1005537)
      佟瑞欣 Ruixin Tong (id:1276103)
      于慧 Hui Yu (id:1316668)
      曹骏 Jun Cao (id:1275884)
      陶海 Hai Tao (id:1316784)
      叶祖新 Zuxin Ye (id:1316291)
      范世錡 Shiqi Fan (id:1340464)
      于湉 Tan Yu (id:1340458)
      白宇帆 Yufan Bai (id:1405549)
      张晓晨 Xiaochen Zhang (id:1315048)
      李子峰 Zifeng Li (id:1326498)
      方逸伦 Yilun Fang (id:1359360)
      刘佩琦 Peiqi Liu (id:1274585)
      张海宇 Haiyu Zhang (id:1364842)
      周游 You Zhou (id:1353521)
      生港帅 Gangshuai Sheng (id:1430147)
      叶筱玮 Xiaowei Ye (id:1371589)
      吴希泽 Caesar Wu (id:1383959)
      刘帅 Lucas Liu (id:1358088)
      李殿尊 Dianzun Li (id:1420569)
      王天辰 Tianchen Wang (id:1366846)
      此沙 J_Black (id:1428375)
      达伦·格罗夫纳 Darren Grosvenor (id:1351374)
      托马斯·菲凯 Thomas Fiquet (id:1430186)
      刘泊潇 Boxiao Liu (id:1318071)
      小爱 Hao Liu (id:1339968)
      张洪睿 Hongrui Zhang (id:1318622)
      耿乐 Le Geng (id:1274576)
      叶火 Huo Ye (id:1423966)
      潘斌龙 Binlong Pan (id:1316365)
      李感 Gan Li (id:1352755)
      罗泽楷 Zekai Luo (id:1456866)
      徐佳 Jia Xu (id:1313651)
      高容方 Rongfang Gao (id:1422650)
      刘恩佳 Enjia Liu (id:1355538)
      徐晓璐 Xiaolu Xu (id:1355406)
      刘哲尔 Zheer Liu (id:1386837)
      佟丽娅 Liya Tong (id:1275756)
      佟大为 Dawei Tong (id:1009179)
      薛佳凝 Jianing Xue (id:1312914)
      张婧仪 Jingyi Zhang (id:1407562)
      包贝尔 Bei’er Bao (id:1315866)
      林芷伊 Lin Zhi Yi (id:1451788)
      程武 Wu Cheng (id:1406349)
      王健儿 Jian’er Wang (id:1440168)
      任宁 Ning Ren (id:1357630)
      黄建新 Jianxin Huang (id:1019896)
      郑志昊 Zhihao Zheng (id:1397531)
      曹华益 Huayi Cao (id:1379649)
      傅若清 Ruoqing Fu (id:1417588)
      焦宏奋 Hongfen Jiao (id:1412277)
      林建岳 Peter Lam (id:1340495)
      赵海城 Haicheng Zhao (id:1392082)
      贾淕 Lu Jia (id:1447542)
      许建海 Jianhai Xu (id:1384186)
      徐春萍 Chunping Xu (id:1448941)
      王隽 Jun Wang (id:1448949)
      曾海东 Haidong Zeng (id:1453515)
      梅林茂 Shigeru Umebayashi (id:1005471)
      黄逸歆 Yixin Huang (id:1460965)
      曹郁 Yu Cao (id:1304904)
      孙志功 Zhigong Sun (id:1409415)
      于柏杨 Boyang Yu (id:1352368)
      吴嘉葵 (id:1440170)
      陈同勋 Tongxun Chen (id:1331176)
      姬磊 (id:1440169)
      宋慧雯 Huiwen Song (id:1443095)
      杨菁奕 (id:1440171)
      姜超 Chao Jiang (id:1417970)
      王程 Cheng Wang (id:1440172)

◎标  签 建党百年 / 爱国主义 / 献礼片 / 历史 / 中国 / 主旋律 / 2021 / 青春

◎简  介
  影片以时代“横截面”视角切入,聚焦1921年前后的故事,全景式重现了百年前波澜壮阔、开天辟地的历史时刻——来自五湖四海平均年龄仅28岁的热血青年们,突破国际各股复杂势力的监控和追踪,聚集上海召开中国共产党第一次代表大会,见证中国共产党的成立。

视频信息

General
Unique ID                      : 277645099285942775360713347781999277556 (0xD0E08045A56C54E4E0BEA4FD0C6135F4)
Complete name                  : E:\DSfile\1921 2021 WEB-DL 4K H265 AAC 5.1-10015@BBQDDQ.COM.mkv
Format                         : Matroska
Format version                 : Version 4
File size                      : 5.66 GiB
Duration                       : 2 h 16 min
Overall bit rate               : 5 941 kb/s
Encoded date                   : UTC 2021-09-25 02:20:32
Writing application            : mkvmerge v58.0.0 ('Supper's Ready') 64-bit
Writing library                : libebml v1.4.2 + libmatroska v1.6.4

Video
ID                             : 1
Format                         : HEVC
Format/Info                    : High Efficiency Video Coding
Format profile                 : Main@L5@Main
Codec ID                       : V_MPEGH/ISO/HEVC
Duration                       : 2 h 16 min
Bit rate                       : 5 618 kb/s
Width                          : 3 840 pixels
Height                         : 1 626 pixels
Display aspect ratio           : 2.35:1
Frame rate mode                : Constant
Frame rate                     : 24.000 FPS
Color space                    : YUV
Chroma subsampling             : 4:2:0
Bit depth                      : 8 bits
Bits/(Pixel*Frame)             : 0.037
Stream size                    : 5.35 GiB (95%)
Writing library                : HW265_Code
Default                        : Yes
Forced                         : No
Color range                    : Limited
Color primaries                : BT.709
Transfer characteristics       : BT.709
Matrix coefficients            : BT.709

Audio #1
ID                             : 2
Format                         : AAC LC SBR
Format/Info                    : Advanced Audio Codec Low Complexity with Spectral Band Replication
Commercial name                : HE-AAC
Format settings                : NBC
Codec ID                       : A_AAC-5
Duration                       : 2 h 16 min
Bit rate                       : 132 kb/s
Channel(s)                     : 6 channels
Channel layout                 : C L R Ls Rs LFE
Sampling rate                  : 48.0 kHz
Frame rate                     : 23.438 FPS (2048 SPF)
Compression mode               : Lossy
Stream size                    : 128 MiB (2%)
Language                       : Chinese
Default                        : Yes
Forced                         : No

Audio #2
ID                             : 3
Format                         : AAC LC
Format/Info                    : Advanced Audio Codec Low Complexity
Codec ID                       : A_AAC-2
Duration                       : 2 h 16 min
Bit rate                       : 192 kb/s
Channel(s)                     : 2 channels
Channel layout                 : L R
Sampling rate                  : 48.0 kHz
Frame rate                     : 46.875 FPS (1024 SPF)
Compression mode               : Lossy
Stream size                    : 185 MiB (3%)
Language                       : Chinese
Default                        : No
Forced                         : No

视频截图

下载地址

1921[国语配音+中文字幕].1921.2021.1080p.WEB-DL.H264.AAC-10006@BBQDDQ.COM 2.02GB:magnet:?xt=urn:btih:0A4F9E4FE2EE2B4BCBC8EBCCF8BB170B1F68F511

1921[国语配音+中文字幕].1921.2021.WEB-DL.4K.H265.AAC.5.1-10015@BBQDDQ.COM 5.66GB:magnet:?xt=urn:btih:5A805C8FD02E2565DD371DC3AD7864889B452C8F

1921[国语配音+中文字幕].1921.2021.Bluray.1080p.TrueHD7.1.x265.10bit-10008@BBQDDQ.COM 9.78GB:magnet:?xt=urn:btih:7CE6231220F1E550D292625B9514448762BE5B29

革命者

%title插图%num

◎译  名 革命者 / The Pioneer
◎年  代 2021
◎产  地 中国大陆
◎类  别 剧情 /
◎语  言 汉语普通话
◎上映日期 2021-07-01(中国大陆)
◎IMDb链接 https://www.imdb.com/title/tt14922172/
◎豆瓣评分 7.5/10 (53944人评价)
◎豆瓣链接 https://movie.douban.com/subject/35288767/
◎片  长 121分钟
◎导  演 徐展雄 Zhanxiong Xu (id:1383327)
◎编  剧 管虎 Hu Guan (id:1274919)
      吴兵 Bing Wu (id:1317088)
      张珂 Ke Zhang (id:1334235)
      张子五 Ziwu Zhang (id:1456462)
      京瑜 Jing Yu (id:1459680)
◎演  员 张颂文 Songwen Zhang (id:1314329)
      李易峰 Yifeng Li (id:1314140)
      佟丽娅 Liya Tong (id:1275756)
      成泰燊 Taishen Cheng (id:1196361)
      彭昱畅 Yuchang Peng (id:1354775)
      李九霄 Jiuxiao Li (id:1330992)
      韩庚 Geng Han (id:1275667)
      梁静 Jing Liang (id:1274641)
      马少骅 Shaohua Ma (id:1274966)
      白客 White. K (id:1332932)
      秦昊 Hao Qin (id:1274463)
      于谦 Qian Yu (id:1274307)
      孙浠伦 Xilun Sun (id:1384585)
      章若楠 Ruonan Zhang (id:1397180)
      辛云来 Yunlai Xin (id:1397178)
      朱梓瑜 Ziyu Zhu (id:1426825)
      张承 Cheng Zhang (id:1345392)
      仇硕康 Shuokang Qiu (id:1399618)
      管虎 Hu Guan (id:1274919)
      梁静 Jing Liang (id:1274641)
      曹晓北 Xiaobei Cao (id:1453465)
      刘琼芳 Qiongfang Liu (id:1417977)
      高伟喆 Weizhe Gao (id:1396065)

◎标  签 李大钊 / 爱国主义 / 红色主旋律 / 革命 / 历史 / 真实事件改编 / 2021 / 传记

◎简  介
  1927年4月26日,距离李大钊被执行绞刑还有38小时。此时,我党各方力量仍在积极组织着对他的营救行动,而敌人也在千方百计对他施以酷刑,但依旧毫无进展。焦灼之时,一个年轻警察进入狱中欲对守常先生施以新刑,而关于守常先生一生的革命回忆,也就此拉开帷幕……

视频信息

General
Complete name                  : E:\DSfile\革命者.The.Pioneer.2021.2160p.WEB-DL.AAC.H265-10005@BBQDDQ.COM.mp4
Format                         : MPEG-4
Format profile                 : Base Media
Codec ID                       : isom (isom/iso2/mp41)
File size                      : 12.8 GiB
Duration                       : 2 h 0 min
Overall bit rate mode          : Variable
Overall bit rate               : 15.2 Mb/s
Writing application            : Lavf58.32.104

Video
ID                             : 1
Format                         : HEVC
Format/Info                    : High Efficiency Video Coding
Format profile                 : Main@L5@Main
Codec ID                       : hev1
Codec ID/Info                  : High Efficiency Video Coding
Duration                       : 2 h 0 min
Bit rate                       : 15.1 Mb/s
Width                          : 4 096 pixels
Height                         : 1 706 pixels
Display aspect ratio           : 2.40:1
Original display aspect ratio  : 2.40:1
Frame rate mode                : Constant
Frame rate                     : 25.000 FPS
Standard                       : Component
Color space                    : YUV
Chroma subsampling             : 4:2:0
Bit depth                      : 8 bits
Bits/(Pixel*Frame)             : 0.086
Stream size                    : 12.7 GiB (99%)
Writing library                : x265 2.8:[Linux][GCC 4.8.5][64 bit] 8bit+10bit+12bit
Encoding settings              : cpuid=1111039 / frame-threads=5 / wpp / no-pmode / no-pme / no-psnr / no-ssim / log-level=2 / input-csp=1 / input-res=4096x1706 / interlace=0 / total-frames=0 / level-idc=0 / high-tier=1 / uhd-bd=0 / ref=3 / no-allow-non-conformance / repeat-headers / annexb / no-aud / no-hrd / info / hash=0 / no-temporal-layers / open-gop / min-keyint=1 / keyint=5 / gop-lookahead=0 / bframes=2 / b-adapt=2 / no-b-pyramid / bframe-bias=0 / rc-lookahead=20 / lookahead-slices=8 / scenecut=0 / radl=0 / no-intra-refresh / ctu=64 / min-cu-size=8 / no-rect / no-amp / max-tu-size=32 / tu-inter-depth=1 / tu-intra-depth=1 / limit-tu=0 / rdoq-level=0 / dynamic-rd=0.00 / no-ssim-rd / signhide / no-tskip / nr-intra=0 / nr-inter=0 / no-constrained-intra / strong-intra-smoothing / max-merge=2 / limit-refs=3 / no-limit-modes / me=1 / subme=2 / merange=57 / temporal-mvp / weightp / no-weightb / no-analyze-src-pics / deblock=0:0 / sao / no-sao-non-deblock / rd=3 / no-early-skip / rskip / no-fast-intra / no-tskip-fast / no-cu-lossless / no-b-intra / no-splitrd-skip / rdpenalty=0 / psy-rd=0.00 / psy-rdoq=0.00 / no-rd-refine / no-lossless / cbqpoffs=0 / crqpoffs=0 / rc=cbr / bitrate=15000 / qcomp=0.60 / qpstep=4 / stats-write=0 / stats-read=0 / vbv-maxrate=15000 / vbv-bufsize=15000 / vbv-init=0.9 / ipratio=1.40 / pbratio=1.00 / aq-mode=1 / aq-strength=0.00 / cutree / zone-count=0 / strict-cbr / qg-size=32 / no-rc-grain / qpmax=69 / qpmin=0 / no-const-vbv / sar=255 / sar-width / : / sar-height=2559:2560 / overscan=0 / videoformat=0 / range=0 / colorprim=2 / transfer=2 / colormatrix=2 / chromaloc=0 / display-window=0 / max-cll=0,0 / min-luma=0 / max-luma=255 / log2-max-poc-lsb=8 / vui-timing-info / vui-hrd-info / slices=1 / no-opt-qp-pps / no-opt-ref-list-length-pps / no-multi-pass-opt-rps / scenecut-bias=0.05 / no-opt-cu-delta-qp / no-aq-motion / no-hdr / no-hdr-opt / no-dhdr10-opt / no-idr-recovery-sei / analysis-reuse-level=5 / scale-factor=0 / refine-intra=0 / refine-inter=0 / refine-mv=0 / no-limit-sao / ctu-info=0 / no-lowpass-dct / refine-mv-type=0 / copy-pic=1 / max-ausize-factor=1.0 / no-dynamic-refine / no-single-sei
Color range                    : Limited
Codec configuration box        : hvcC

Audio
ID                             : 2
Format                         : AAC LC
Format/Info                    : Advanced Audio Codec Low Complexity
Codec ID                       : mp4a-40-2
Duration                       : 2 h 0 min
Bit rate mode                  : Variable
Bit rate                       : 125 kb/s
Maximum bit rate               : 129 kb/s
Channel(s)                     : 2 channels
Channel layout                 : L R
Sampling rate                  : 48.0 kHz
Frame rate                     : 46.875 FPS (1024 SPF)
Compression mode               : Lossy
Stream size                    : 108 MiB (1%)
Default                        : Yes
Alternate group                : 1

视频截图

下载地址

革命者.The.Pioneer.2021.1080p.WEB-DL.AAC.H264-10005@BBQDDQ.COM 3.04GB:magnet:?xt=urn:btih:0FEFA2F9E751AD5A3ABF7FB420A3B4B7838AE003

革命者.The.Pioneer.2021.2160p.WEB-DL.AAC.H265-10005@BBQDDQ.COM 12.84GB:magnet:?xt=urn:btih:9764BD823F94558E95494555BF5CBAC99894887C

悬崖之上

%title插图%num

◎译  名 悬崖之上 / Impasse / Cliff Walkers
◎年  代 2021
◎产  地 中国大陆 / 中国香港
◎类  别 剧情 / 动作 / 悬疑
◎语  言 汉语普通话 / 英语 / 俄语
◎上映日期 2021-04-30(中国大陆)
◎IMDb链接 https://www.imdb.com/title/tt11448076/
◎豆瓣评分 7.6/10 (423042人评价)
◎豆瓣链接 https://movie.douban.com/subject/32493124/
◎片  长 120分钟
◎导  演 张艺谋 Yimou Zhang (id:1054398)
◎编  剧 全勇先 Yongxian Quan (id:1318171)
       张艺谋 Yimou Zhang (id:1054398)
       潘依然 Yiran Pan (id:1405343)
◎演  员 张译 Yi Zhang (id:1274761)
       于和伟 Hewei Yu (id:1313742)
       秦海璐 Hailu Qin (id:1274437)
       朱亚文 Yawen Zhu (id:1312699)
       刘浩存 Haocun Liu (id:1410267)
       倪大红 Dahong Ni (id:1274306)
       李乃文 Naiwen Li (id:1274530)
       周晓凡 Xiaofan Zhou (id:1442404)
       雷佳音 Jiayin Lei (id:1312940)
       沙溢 Yi Sha (id:1274648)
       韩昊霖 Haolin Han (id:1396506)
       安冬 Dong An (id:1373336)
       逯长恩 Chang’en Lu (id:1325615)
       冯瓅 Li Feng (id:1319504)
       白恩 En Bai (id:1327332)
       封新天 Xintian Feng (id:1451203)
       齐羽嘉 Yujia Qi (id:1416332)
       丁子迪 Zidi Ding (id:1365828)
       芮丹尼 Danny Ray (id:1391362)
       松天硕 Tianshuo Song (id:1403108)
       马睿瀚 Ruihan Ma (id:1390556)
       纪焕博 Rock Ji (id:1321846)
       王乃训 Naixun Wang (id:1386026)
       陈永胜 Yongsheng Chen (id:1436031)
       焦宏奋 Hongfen Jiao (id:1412277)
       杨受成 Albert Yeung (id:1313455)
       庞丽薇 Liwei Pang (id:1406322)
       梁琳 Lin Liang (id:1400716)
       杨政龙 Zhenglong Yang (id:1442412)
       梁郁 Yu Liang (id:1442414)
       许建海 Jianhai Xu (id:1384186)
       王垂林 Chuilin Wang (id:1446629)
       马寅 Yin Ma (id:1402444)
         于晓楠 Xiaonan Yu (id:1417264)
       李捷 Jie Li (id:1403835)
       彭鸣宇 Mingyu Peng (id:1446113)
       赵海城 Haicheng Zhao (id:1392082)
       邵剑秋 Kim-Chau Shiu (id:1413263)
       王隽  (id:1448949)
       叶蓁蓁 Zhenzhen Ye (id:1453514)
       曹永旭 Yeong-wook Jo (id:1287735)
       周深 Shen Zhou (id:1366895)
       赵小丁 Xiaoding Zhao (id:1274347)
       赵显章 Xianzhang Zhao (id:1406352)
       李永一 Yongyi Li (id:1379294)
       付璐璐 Lulu Fu (id:1401800)
       林木 Lin Mu (id:1325046)
       李言 Yan Li (id:1456204)
       陈敏正 Minzheng Chen (id:1346314)
       梁郁 Yu Liang (id:1442414)
       任茂成 Maocheng Ren (id:1401816)
       杨江 Jiang Yang (id:1351381)
       赵楠 Nan Zhao (id:1325307)
       王星会 Samson Sing Wun Wong (id:1401244)
       郑斗洪 Doo-hong Jung (id:1109833)

◎标  签 谍战 / 张艺谋 / 悬疑 / 于和伟 / 剧情 / 中国大陆 / 2021 / 刘浩存

◎简  介
  上世纪三十年代,四位曾在苏联接受特训的共产党特工组成任务小队,回国执行代号为“乌特拉”的秘密行动。由于叛徒的出卖,他们从跳伞降落的第一刻起,就已置身于敌人布下的罗网之中。同志能否脱身,任务能否完成,雪一直下,立于“悬崖之上”的行动小组面临严峻考验。

视频信息

General
Unique ID                      : 200501744538042371300960318625895856062 (0x96D73B3B1D608F3F995AABD58CC6B7BE)
Complete name                  : E:\DSfile\追光寻影(zgxyi.fdns.uk)悬崖之上.国语中字.Cliff Walkers 2021 WEB-DL 4K H265 Atmos-纯净版.mkv
Format                         : Matroska
Format version                 : Version 4
File size                      : 6.07 GiB
Duration                       : 2 h 0 min
Overall bit rate               : 7 219 kb/s
Encoded date                   : UTC 2021-06-18 08:12:38
Writing application            : mkvmerge v19.0.0 ('Brave Captain') 64-bit
Writing library                : libebml v1.3.5 + libmatroska v1.4.8

Video
ID                             : 1
Format                         : HEVC
Format/Info                    : High Efficiency Video Coding
Format profile                 : Main@L5@Main
Codec ID                       : V_MPEGH/ISO/HEVC
Duration                       : 2 h 0 min
Bit rate                       : 6 638 kb/s
Width                          : 3 840 pixels
Height                         : 1 626 pixels
Display aspect ratio           : 2.35:1
Frame rate mode                : Constant
Frame rate                     : 24.000 FPS
Color space                    : YUV
Chroma subsampling             : 4:2:0
Bit depth                      : 8 bits
Bits/(Pixel*Frame)             : 0.044
Stream size                    : 5.58 GiB (92%)
Writing library                : HW265_Code
Default                        : Yes
Forced                         : No
Color range                    : Limited
Color primaries                : BT.709
Transfer characteristics       : BT.709
Matrix coefficients            : BT.709

Audio #1
ID                             : 2
Format                         : E-AC-3 JOC
Format/Info                    : Enhanced AC-3 with Joint Object Coding
Commercial name                : Dolby Digital Plus with Dolby Atmos
Codec ID                       : A_EAC3
Duration                       : 2 h 0 min
Bit rate mode                  : Constant
Bit rate                       : 448 kb/s
Channel(s)                     : 6 channels
Channel layout                 : L R C LFE Ls Rs
Sampling rate                  : 48.0 kHz
Frame rate                     : 31.250 FPS (1536 SPF)
Compression mode               : Lossy
Stream size                    : 386 MiB (6%)
Language                       : Chinese
Service kind                   : Complete Main
Default                        : Yes
Forced                         : No
Complexity index               : 16
Number of dynamic objects      : 15
Bed channel count              : 1 channel
Bed channel configuration      : LFE

Audio #2
ID                             : 3
Format                         : AAC LC SBR
Format/Info                    : Advanced Audio Codec Low Complexity with Spectral Band Replication
Commercial name                : HE-AAC
Format settings                : NBC
Codec ID                       : A_AAC-5
Duration                       : 2 h 0 min
Bit rate                       : 132 kb/s
Channel(s)                     : 6 channels
Channel layout                 : C L R Ls Rs LFE
Sampling rate                  : 48.0 kHz
Frame rate                     : 23.438 FPS (2048 SPF)
Compression mode               : Lossy
Stream size                    : 113 MiB (2%)
Language                       : Chinese
Default                        : No
Forced                         : No

视频截图

下载地址

悬崖之上.Cliff.Walkers.2021.HD1080P.X264.AAC.Mandarin.CHS.Mp4er 1.83GB:magnet:?xt=urn:btih:4B13209337D89CE6EA87D047E2F65B2DB4D33B46

悬崖之上.国语中字.Cliff Walkers 2021 WEB-DL 4K H265 Atmos-纯净版 6.07GB:magnet:?xt=urn:btih:DE9B8D684D8893292298229412247C6EBAD90308

悬崖之上 Cliff.Walkers.2021.1080p.BluRay.x264-WiKi 12.3GB:magnet:?xt=urn:btih:440F0916E9C09AB21EECC32535F6BBFD3DB59ED1

中国医生

%title插图%num

◎译  名 中国医生 / 中国·医生 / Chinese Doctors
◎年  代 2021
◎产  地 中国大陆
◎类  别 剧情 / 灾难
◎语  言 汉语普通话
◎上映日期 2021-07-09(中国大陆)
◎IMDb链接 https://www.imdb.com/title/tt13696296/
◎豆瓣评分 6.9/10 (161000人评价)
◎豆瓣链接 https://movie.douban.com/subject/35087699/
◎片  长 129分钟
◎导  演 刘伟强 Andrew Lau (id:1106979)
◎编  剧 于勇敢 Yonggan Yu (id:1419542)
◎演  员 张涵予 Hanyu Zhang (id:1274319)
      袁泉 Quan Yuan (id:1010504)
      朱亚文 Yawen Zhu (id:1312699)
      李晨 Chen Li (id:1274252)
      易烊千玺 Jackson Yee (id:1340022)
      欧豪 Hao Ou (id:1337644)
      周也 Ye Zhou (id:1412762)
      冯文娟 Wenjuan Feng (id:1325753)
      耿乐 Le Geng (id:1274576)
      梁大维 Dawei Liang (id:1313231)
      小爱 Hao Liu (id:1339968)
      雅玫 Yamei Zhang (id:1328280)
      杨祺如 Qiru Yang (id:1413270)
      叶禾 He Ye (id:1369940)
      蒋林燕 Linyan Jiang (id:1346433)
      梅婷 Ting Mei (id:1047083)
      李沁 Qin Li (id:1274844)
      张天爱 Tian’ai Zhang (id:1353578)
      宋佳 Jia Song (id:1042341)
      俞飞鸿 Faye Yu (id:1014618)
      倪虹洁 Hongjie Ni (id:1274649)
      冯绍峰 Shaofeng Feng (id:1275721)
      周笔畅 Bichang Zhou (id:1274425)
      张颂文 Songwen Zhang (id:1314329)
      张子枫 Zifeng Zhang (id:1274254)
      佟丽娅 Liya Tong (id:1275756)
      谷嘉诚 Jason Gu (id:1356456)
      刘威 Wei Liu (id:1313885)
      刘佳 Jia Liu (id:1312909)
      赵宁宇 Ningyu Zhao (id:1275776)
      王挺 Ting Wang (id:1314471)
      余皑磊 Ailei Yu (id:1313809)
      黄璐 Lu Huang (id:1276144)
      印小天 Xiaotian Yin (id:1274888)
      张嘉倪 Jiani Zhang (id:1314636)
      释小龙 Siu Lung Sik (id:1014738)
      高戈 Ge Gao (id:1413271)
      刘琳 Lin Liu (id:1116446)
      来喜 Laixi (id:1321645)
      万国鹏 Guopeng Wan (id:1350013)
      王昭 Zhao Wang (id:1350000)
      石昊正 Haozheng Shi (id:1352902)
      于冬 Dong Yu (id:1317865)
      刘伟强 Andrew Lau (id:1106979)
      李锦文 Peggy Lee Kam-Man (id:1321355)
      蒋德富 Defu Jiang (id:1423660)
      曲吉小江 Xiaojiang Quji (id:1423706)

◎标  签 抗疫 / 真实事件改编 / 疫情 / 温情 / 中国大陆 / 人性 / 2021 / 社会

◎简  介
  电影根据新冠肺炎疫情防控斗争的真实事件改编,以武汉市金银潭医院为核心故事背景,同时兼顾武汉同济医院、武汉市肺科医院、武汉协和医院、武汉大学人民医院(湖北省人民医院)、火神山医院、方舱医院等兄弟单位,以武汉医护人员、全国各省市援鄂医疗队为人物原型,全景式记录波澜壮阔、艰苦卓绝的抗疫斗争。

视频信息

General
Unique ID                      : 265745496967346874841678681435710605600 (0xC7ECB894BCB2BF09CBCA8FA86AF2C920)
Complete name                  : D:\迅雷下载\【更多高清电影访问 www.BBQDDQ.com】中国医生[国语配音+中文字幕].Chinese.Doctors.2021.2160p.WEB-DL.H265.DDP5.1.Atoms-10006@BBQDDQ.COM 3.54GB\中国医生.Chinese.Doctors.2021.2160p.WEB-DL.H265.DDP5.1.Atoms-10006@BBQDDQ.COM.mkv
Format                         : Matroska
Format version                 : Version 4
File size                      : 3.54 GiB
Duration                       : 2 h 8 min
Overall bit rate               : 3 954 kb/s
Encoded date                   : UTC 2021-09-19 02:46:09
Writing application            : mkvmerge v51.0.0 ('I Wish') 64-bit
Writing library                : libebml v1.4.0 + libmatroska v1.6.2

Video
ID                             : 1
Format                         : HEVC
Format/Info                    : High Efficiency Video Coding
Format profile                 : Main@L5@Main
Codec ID                       : V_MPEGH/ISO/HEVC
Duration                       : 2 h 8 min
Bit rate                       : 3 314 kb/s
Width                          : 3 840 pixels
Height                         : 1 608 pixels
Display aspect ratio           : 2.40:1
Frame rate mode                : Constant
Frame rate                     : 24.000 FPS
Color space                    : YUV
Chroma subsampling             : 4:2:0
Bit depth                      : 8 bits
Bits/(Pixel*Frame)             : 0.022
Stream size                    : 2.96 GiB (84%)
Default                        : Yes
Forced                         : No

Audio #1
ID                             : 2
Format                         : E-AC-3 JOC
Format/Info                    : Enhanced AC-3 with Joint Object Coding
Commercial name                : Dolby Digital Plus with Dolby Atmos
Codec ID                       : A_EAC3
Duration                       : 2 h 8 min
Bit rate mode                  : Constant
Bit rate                       : 448 kb/s
Channel(s)                     : 6 channels
Channel layout                 : L R C LFE Ls Rs
Sampling rate                  : 48.0 kHz
Frame rate                     : 31.250 FPS (1536 SPF)
Compression mode               : Lossy
Stream size                    : 410 MiB (11%)
Language                       : Chinese
Service kind                   : Complete Main
Default                        : Yes
Forced                         : No
Complexity index               : 12
Number of dynamic objects      : 11
Bed channel count              : 1 channel
Bed channel configuration      : LFE

Audio #2
ID                             : 3
Format                         : AAC LC
Format/Info                    : Advanced Audio Codec Low Complexity
Codec ID                       : A_AAC-2
Duration                       : 2 h 8 min
Bit rate                       : 192 kb/s
Channel(s)                     : 2 channels
Channel layout                 : L R
Sampling rate                  : 44.1 kHz
Frame rate                     : 43.066 FPS (1024 SPF)
Compression mode               : Lossy
Stream size                    : 174 MiB (5%)
Language                       : Chinese
Default                        : No
Forced                         : No

视频截图

下载地址

中国医生[国语配音+中文字幕].Chinese.Doctors.2021.1080p.WEB-DL.H264.DDP5.1.Atoms-10006@BBQDDQ.COM 2.31GB:magnet:?xt=urn:btih:72A4B3D1C21532B9BE2D014D50ECECB63247CA17

中国医生[国语配音+中文字幕].Chinese.Doctors.2021.2160p.WEB-DL.H265.DDP5.1.Atoms-10006@BBQDDQ.COM 3.54GB:magnet:?xt=urn:btih:9C29863E4DFC405464A5B845D1CDEF7A821E0BFF

留下评论

Secured By miniOrange