美国科幻惊悚 A Quiet Place:寂静之地1+2全集 4k

%title插图%num

◎译  名 寂静之地2/A Quiet Place 2/噤界II(台)/无声绝境II(港)
◎片  名 A Quiet Place: Part II
◎年  代 2021
◎产  地 美国
◎类  别 科幻 / 惊悚 / 恐怖
◎语  言 英语
◎上映日期 2021-05-28(中国大陆/美国)
◎IMDb评分  7.7/10 from 44356 users
◎IMDb链接  https://www.imdb.com/title/tt8332922/
◎豆瓣评分 6.7/10 from 88785 users
◎豆瓣链接 https://movie.douban.com/subject/30206311/
◎片  长 97分钟
◎导  演 约翰·卡拉辛斯基 John Krasinski
◎编  剧 约翰·卡拉辛斯基 John Krasinski / 斯科特·贝克 Scott Beck / 布莱恩·伍兹 Bryan Woods
◎主  演 艾米莉·布朗特 Emily Blunt
       基里安·墨菲 Cillian Murphy
       米利森特·西蒙兹 Millicent Simmonds
       诺亚·尤佩 Noah Jupe
       约翰·卡拉辛斯基 John Krasinski
       杰曼·翰苏 Djimon Hounsou
       奥基里特·奥诺多瓦 Okieriete Onaodowan
       斯科特·麦克纳里 Scoot McNairy
       扎卡里·戈林格 Zachary Golinger
       布莱克·德隆 Blake DeLong
       加里·桑当 Gary Sundown
       阿什利·戴克 Ashley Dyke
       韦恩·杜瓦尔 Wayne Duvall
       克兹托夫·克里斯·马杜拉 Krzysztof ‘Kris’ Mardula

◎标  签 惊悚 | 恐怖 | 美国 | 惊恐 | 科幻 | 2021 | 悬疑 | 超自然

◎简  介

故事紧承上一部展开。在丈夫为保护家人牺牲后,伊芙琳(艾米莉·布朗特 饰)不得不独自带着孩子们(米莉森·西蒙斯、诺亚·尤佩 饰)面对全新的生存挑战。他们将被迫离开家园,踏上一段未知的旅途。在无声的世界里,除了要躲避“猎声怪物”的捕杀,铺满细沙的道路尽头还暗藏着新的危机。

视频信息

General
 Unique ID                      : 74880887766453420491353361454484537196 (0x385588CE83E174E9544081F20429BF6C)
 Complete name                  : D:\追光寻影(zgxyi.fdns.uk)寂静之地2.简繁中文字幕A.Quiet.Place.Part.II.2020.HDR.2160p.WEB.H265-纯净版.mkv
 Format                         : Matroska
 Format version                 : Version 4
 File size                      : 10.3 GiB
 Duration                       : 1 h 37 min
 Overall bit rate               : 15.2 Mb/s
 Encoded date                   : UTC 2021-06-28 00:52:58
 Writing application            : mkvmerge v57.0.0 ('Till The End') 64-bit
 Writing library                : libebml v1.4.2 + libmatroska v1.6.4
 Video
 ID                             : 1
 Format                         : HEVC
 Format/Info                    : High Efficiency Video Coding
 Format profile                 : Main 10@L5@High
 HDR format                     : SMPTE ST 2086, HDR10 compatible
 Codec ID                       : V_MPEGH/ISO/HEVC
 Duration                       : 1 h 37 min
 Bit rate                       : 14.4 Mb/s
 Width                          : 3 840 pixels
 Height                         : 1 606 pixels
 Display aspect ratio           : 2.40:1
 Frame rate mode                : Constant
 Frame rate                     : 23.976 FPS
 Color space                    : YUV
 Chroma subsampling             : 4:2:0 (Type 2)
 Bit depth                      : 10 bits
 Bits/(Pixel*Frame)             : 0.097
 Stream size                    : 9.76 GiB (95%)
 Default                        : Yes
 Forced                         : No
 Color range                    : Limited
 Color primaries                : BT.2020
 Transfer characteristics       : PQ
 Matrix coefficients            : BT.2020 non-constant
 Mastering display color primar : Display P3
 Mastering display luminance    : min: 0.0050 cd/m2, max: 1000 cd/m2
 Maximum Content Light Level    : 1450 cd/m2
 Maximum Frame-Average Light Le : 278 cd/m2
 Audio
 ID                             : 2
 Format                         : E-AC-3 JOC
 Format/Info                    : Enhanced AC-3 with Joint Object Coding
 Commercial name                : Dolby Digital Plus with Dolby Atmos
 Codec ID                       : A_EAC3
 Duration                       : 1 h 37 min
 Bit rate mode                  : Constant
 Bit rate                       : 768 kb/s
 Channel(s)                     : 6 channels
 Channel layout                 : L R C LFE Ls Rs
 Sampling rate                  : 48.0 kHz
 Frame rate                     : 31.250 FPS (1536 SPF)
 Compression mode               : Lossy
 Stream size                    : 533 MiB (5%)
 Title                          : English
 Language                       : English
 Service kind                   : Complete Main
 Default                        : Yes
 Forced                         : No
 Complexity index               : 16
 Number of dynamic objects      : 15
 Bed channel count              : 1 channel
 Bed channel configuration      : LFE
 Text #1
 ID                             : 3
 Format                         : UTF-8
 Codec ID                       : S_TEXT/UTF8
 Codec ID/Info                  : UTF-8 Plain Text
 Duration                       : 47 min 28 s
 Bit rate                       : 3 b/s
 Count of elements              : 69
 Stream size                    : 1.26 KiB (0%)
 Title                          : English [Forced]
 Language                       : English
 Default                        : Yes
 Forced                         : Yes
 Text #2
 ID                             : 4
 Format                         : UTF-8
 Codec ID                       : S_TEXT/UTF8
 Codec ID/Info                  : UTF-8 Plain Text
 Duration                       : 1 h 26 min
 Bit rate                       : 18 b/s
 Count of elements              : 563
 Stream size                    : 11.9 KiB (0%)
 Language                       : English
 Default                        : No
 Forced                         : No
 Text #3
 ID                             : 5
 Format                         : UTF-8
 Codec ID                       : S_TEXT/UTF8
 Codec ID/Info                  : UTF-8 Plain Text
 Duration                       : 1 h 35 min
 Bit rate                       : 10 b/s
 Count of elements              : 329
 Stream size                    : 7.61 KiB (0%)
 Title                          : European Spanish
 Language                       : Spanish
 Default                        : No
 Forced                         : No
 Text #4
 ID                             : 6
 Format                         : UTF-8
 Codec ID                       : S_TEXT/UTF8
 Codec ID/Info                  : UTF-8 Plain Text
 Duration                       : 1 h 35 min
 Bit rate                       : 9 b/s
 Count of elements              : 299
 Stream size                    : 6.95 KiB (0%)
 Title                          : French
 Language                       : French
 Default                        : No
 Forced                         : No
 Text #5
 ID                             : 7
 Format                         : UTF-8
 Codec ID                       : S_TEXT/UTF8
 Codec ID/Info                  : UTF-8 Plain Text
 Duration                       : 1 h 35 min
 Bit rate                       : 10 b/s
 Count of elements              : 322
 Stream size                    : 7.49 KiB (0%)
 Title                          : Portuguese
 Language                       : Portuguese
 Default                        : No
 Forced                         : No
 Text #6
 ID                             : 8
 Format                         : UTF-8
 Codec ID                       : S_TEXT/UTF8
 Codec ID/Info                  : UTF-8 Plain Text
 Duration                       : 1 h 35 min
 Bit rate                       : 10 b/s
 Count of elements              : 326
 Stream size                    : 7.49 KiB (0%)
 Title                          : Polish
 Language                       : Polish
 Default                        : No
 Forced                         : No
 Text #7
 ID                             : 9
 Format                         : UTF-8
 Codec ID                       : S_TEXT/UTF8
 Codec ID/Info                  : UTF-8 Plain Text
 Duration                       : 1 h 35 min
 Bit rate                       : 11 b/s
 Count of elements              : 331
 Stream size                    : 7.90 KiB (0%)
 Title                          : Turkish
 Language                       : Turkish
 Default                        : No
 Forced                         : No
 Text #8
 ID                             : 10
 Format                         : UTF-8
 Codec ID                       : S_TEXT/UTF8
 Codec ID/Info                  : UTF-8 Plain Text
 Duration                       : 1 h 35 min
 Bit rate                       : 11 b/s
 Count of elements              : 328
 Stream size                    : 7.97 KiB (0%)
 Title                          : Swedish
 Language                       : Swedish
 Default                        : No
 Forced                         : No
 Text #9
 ID                             : 11
 Format                         : UTF-8
 Codec ID                       : S_TEXT/UTF8
 Codec ID/Info                  : UTF-8 Plain Text
 Duration                       : 1 h 35 min
 Bit rate                       : 9 b/s
 Count of elements              : 311
 Stream size                    : 6.89 KiB (0%)
 Title                          : Danish
 Language                       : Danish
 Default                        : No
 Forced                         : No
 Text #10
 ID                             : 12
 Format                         : UTF-8
 Codec ID                       : S_TEXT/UTF8
 Codec ID/Info                  : UTF-8 Plain Text
 Duration                       : 1 h 35 min
 Bit rate                       : 11 b/s
 Count of elements              : 333
 Stream size                    : 8.05 KiB (0%)
 Title                          : Finnish
 Language                       : Finnish
 Default                        : No
 Forced                         : No
 Text #11
 ID                             : 13
 Format                         : UTF-8
 Codec ID                       : S_TEXT/UTF8
 Codec ID/Info                  : UTF-8 Plain Text
 Duration                       : 1 h 35 min
 Bit rate                       : 10 b/s
 Count of elements              : 333
 Stream size                    : 7.12 KiB (0%)
 Title                          : Norwegian
 Language                       : Norwegian
 Default                        : No
 Forced                         : No
 Text #12
 ID                             : 14
 Format                         : UTF-8
 Codec ID                       : S_TEXT/UTF8
 Codec ID/Info                  : UTF-8 Plain Text
 Duration                       : 1 h 35 min
 Bit rate                       : 17 b/s
 Count of elements              : 331
 Stream size                    : 12.4 KiB (0%)
 Title                          : Russian
 Language                       : Russian
 Default                        : No
 Forced                         : No
 Text #13
 ID                             : 15
 Format                         : UTF-8
 Codec ID                       : S_TEXT/UTF8
 Codec ID/Info                  : UTF-8 Plain Text
 Duration                       : 1 h 35 min
 Bit rate                       : 17 b/s
 Count of elements              : 339
 Stream size                    : 12.4 KiB (0%)
 Title                          : Ukrainian
 Language                       : Ukrainian
 Default                        : No
 Forced                         : No
 Text #14
 ID                             : 16
 Format                         : UTF-8
 Codec ID                       : S_TEXT/UTF8
 Codec ID/Info                  : UTF-8 Plain Text
 Duration                       : 1 h 35 min
 Bit rate                       : 10 b/s
 Count of elements              : 334
 Stream size                    : 7.69 KiB (0%)
 Title                          : Hungarian
 Language                       : Hungarian
 Default                        : No
 Forced                         : No
 Text #15
 ID                             : 17
 Format                         : UTF-8
 Codec ID                       : S_TEXT/UTF8
 Codec ID/Info                  : UTF-8 Plain Text
 Duration                       : 1 h 35 min
 Bit rate                       : 17 b/s
 Count of elements              : 324
 Stream size                    : 12.5 KiB (0%)
 Title                          : Greek
 Language                       : Greek
 Default                        : No
 Forced                         : No
 Text #16
 ID                             : 18
 Format                         : UTF-8
 Codec ID                       : S_TEXT/UTF8
 Codec ID/Info                  : UTF-8 Plain Text
 Duration                       : 1 h 35 min
 Bit rate                       : 14 b/s
 Count of elements              : 336
 Stream size                    : 10.2 KiB (0%)
 Title                          : Hebrew
 Language                       : Hebrew
 Default                        : No
 Forced                         : No
 Text #17
 ID                             : 19
 Format                         : UTF-8
 Codec ID                       : S_TEXT/UTF8
 Codec ID/Info                  : UTF-8 Plain Text
 Duration                       : 1 h 35 min
 Bit rate                       : 15 b/s
 Count of elements              : 335
 Stream size                    : 10.9 KiB (0%)
 Title                          : Arabic
 Language                       : Arabic
 Default                        : No
 Forced                         : No
 Text #18
 ID                             : 20
 Format                         : UTF-8
 Codec ID                       : S_TEXT/UTF8
 Codec ID/Info                  : UTF-8 Plain Text
 Duration                       : 1 h 35 min
 Bit rate                       : 10 b/s
 Count of elements              : 326
 Stream size                    : 7.32 KiB (0%)
 Title                          : Czech
 Language                       : Czech
 Default                        : No
 Forced                         : No
 Text #19
 ID                             : 21
 Format                         : UTF-8
 Codec ID                       : S_TEXT/UTF8
 Codec ID/Info                  : UTF-8 Plain Text
 Duration                       : 1 h 35 min
 Bit rate                       : 10 b/s
 Count of elements              : 325
 Stream size                    : 7.57 KiB (0%)
 Title                          : Indonesian
 Language                       : Indonesian
 Default                        : No
 Forced                         : No
 Text #20
 ID                             : 22
 Format                         : UTF-8
 Codec ID                       : S_TEXT/UTF8
 Codec ID/Info                  : UTF-8 Plain Text
 Duration                       : 1 h 35 min
 Bit rate                       : 11 b/s
 Count of elements              : 333
 Stream size                    : 7.90 KiB (0%)
 Title                          : Malay
 Language                       : Malay
 Default                        : No
 Forced                         : No
 Text #21
 ID                             : 23
 Format                         : UTF-8
 Codec ID                       : S_TEXT/UTF8
 Codec ID/Info                  : UTF-8 Plain Text
 Duration                       : 1 h 35 min
 Bit rate                       : 14 b/s
 Count of elements              : 329
 Stream size                    : 9.98 KiB (0%)
 Title                          : Vietnamese
 Language                       : Vietnamese
 Default                        : No
 Forced                         : No
 Text #22
 ID                             : 24
 Format                         : UTF-8
 Codec ID                       : S_TEXT/UTF8
 Codec ID/Info                  : UTF-8 Plain Text
 Duration                       : 1 h 35 min
 Bit rate                       : 10 b/s
 Count of elements              : 331
 Stream size                    : 7.02 KiB (0%)
 Title                          : Cantonese
 Language                       : Chinese
 Default                        : No
 Forced                         : No
 Text #23
 ID                             : 25
 Format                         : UTF-8
 Codec ID                       : S_TEXT/UTF8
 Codec ID/Info                  : UTF-8 Plain Text
 Duration                       : 1 h 35 min
 Bit rate                       : 11 b/s
 Count of elements              : 331
 Stream size                    : 7.76 KiB (0%)
 Title                          : Chinese (Simplified)
 Language                       : Chinese
 Default                        : No
 Forced                         : No
 Text #24
 ID                             : 26
 Format                         : UTF-8
 Codec ID                       : S_TEXT/UTF8
 Codec ID/Info                  : UTF-8 Plain Text
 Duration                       : 1 h 35 min
 Bit rate                       : 9 b/s
 Count of elements              : 330
 Stream size                    : 6.65 KiB (0%)
 Title                          : Chinese (Traditional)
 Language                       : Chinese
 Default                        : No
 Forced                         : No
 Text #25
 ID                             : 27
 Format                         : UTF-8
 Codec ID                       : S_TEXT/UTF8
 Codec ID/Info                  : UTF-8 Plain Text
 Duration                       : 1 h 35 min
 Bit rate                       : 10 b/s
 Count of elements              : 346
 Stream size                    : 7.52 KiB (0%)
 Title                          : Japanese
 Language                       : Japanese
 Default                        : No
 Forced                         : No
 Menu
 00:00:00.000                   : Scene 1
 00:06:39.107                   : Scene 2
 00:12:16.319                   : Scene 3
 00:17:00.270                   : Scene 4
 00:26:28.171                   : Scene 5
 00:33:26.339                   : Scene 6
 00:38:06.703                   : Scene 7
 00:45:53.753                   : Scene 8
 00:51:18.036                   : Scene 9
 00:55:35.919                   : Scene 10
 01:02:21.282                   : Scene 11
 01:08:43.832                   : Scene 12
 01:16:31.925                   : Scene 13
 01:21:25.885                   : Scene 14
 01:28:11.833                   : Scene 15

视频截图

下载地址

寂静之地.特效简繁中英.中文字幕.A Quiet Place.2018.UHD.BluRay.2160p.TrueHD.7.1.HDR.x265.10bit-纯净版:magnet:?xt=urn:btih:FB1207AA4646FE82B9F385098BD7191EDAA852A5

寂静之地2.简繁中文字幕A.Quiet.Place.Part.II.2020.HDR.2160p.WEB.H265-纯净版:magnet:?xt=urn:btih:C2EDC35B990D9475302EE377045B016754887C48

留下评论

Secured By miniOrange