[2021美国悬疑恐怖]Fear Street 1-3:恐惧街1-3[中字][WEB-MKV-1080p]

%title插图%num

◎译  名 恐惧街 / 恐惧街1:1994 / 恐惧大街1:1994 / Fear Street Part One: 1994 / Fear Street Part 1: 1994
◎片  名 Fear Street
◎年  代 2021
◎产  地 美国
◎类  别 悬疑 / 恐怖
◎语  言 英语
◎上映日期 2021-07-02(美国)
◎IMDb评分 6.2/10 (56,867人评价)
◎IMDb链接 https://www.imdb.com/title/tt6566576/
◎豆瓣评分 5.9/10 (7676人评价)
◎豆瓣链接 https://movie.douban.com/subject/27089580/
◎片  长 107分钟
◎导  演 丽恩·贾尼埃克 Leigh Janiak (id:1377370)
◎编  剧 R·L·斯坦 R.L. Stine (id:1028271)
       凯尔·基伦 Kyle Killen (id:1396400)
       丽恩·贾尼埃克 Leigh Janiak (id:1377370)
       扎克·奥尔维奇 Zak Olkewicz (id:1409124)
       罗伯托·帕蒂诺 Roberto Patino (id:1391870)
       凯特·特雷弗里 Kate Trefry (id:1386754)
◎演  员 基亚娜·马德拉 Kiana Madeira (id:1360691)
       奥利维亚·韦尔奇 Olivia Welch (id:1457008)
       玛雅·霍克 Maya Hawke (id:1202487)
       小本杰明·弗洛雷斯 Benjamin Flores Jr. (id:1386100)
       朱莉娅·雷沃尔德 Julia Rehwald (id:1459087)
       阿什利·祖克曼 Ashley Zukerman (id:1315353)
       乔丹娜·斯皮罗 Jordana Spiro (id:1000203)
       达里尔·布里特-吉布森 Darrell Britt-Gibson (id:1342392)
       乔迪恩·迪纳塔莱 Jordyn DiNatale (id:1453669)
       萨迪·辛克 Sadie Sink (id:1378568)
       夏洛林·阿莫亚 Charlene Amoia (id:1332148)
       大卫·W·汤普森 David Thompson (id:1426427)
       嘉娜·艾伦 Jana Allen (id:1454728)
       弗莱德·赫钦格 Fred Hechinger (id:1395178)
       马特·伯克 Matt Burke (id:1397595)
       马修·祖克 Matthew Zuk (id:1392747)
        Danyon Huntington (id:1269401)
       黛安娜·塞勒斯 Diane Sellers (id:1433066)
       托德·艾伦·德金 Todd Allen Durkin (id:1382745)
       艾米丽·布罗斯特 Emily Brobst (id:1195858)
       迈克尔·钱德勒 Michael Chandler (id:1378740)
       莱西·坎普 Lacy Camp (id:1391093)
       吉莉安·雅各布斯 Gillian Jacobs (id:1274992)
       埃米莉·拉德 Emily Rudd (id:1365205)
       凯文·阿尔维斯 Kevin Alves (id:1345465)

◎标  签 恐怖 / 惊悚 / 美国 / Netflix / 悬疑 / 2021 / 超自然 / 小说改编

◎简  介
  1994 年,一群青少年发现,发生在小镇几代人身上的恐怖事件之间可能存在某种关联,并且他们恐怕就是下一个牺牲品。《恐惧街》改编自 R·L·史坦恩的畅销恐怖系列,本剧揭开了荫城的险恶历史,这段长达 300 年的历史已成为小镇人漫长的梦魇。

视频截图

视频信息

General
Unique ID                      : 107575004839672683122415724687572008120 (0x50EE313B26D35DE06BD78A1F499EFCB8)
Complete name                  : D:\迅雷下载\Fear.Street.Part.1.1994.2021.1080p.NF.WEB-DL.DDP5.1.Atmos.x264-10006@BBQDDQ.COM.mkv
Format                         : Matroska
Format version                 : Version 4
File size                      : 4.88 GiB
Duration                       : 1 h 47 min
Overall bit rate mode          : Variable
Overall bit rate               : 6 518 kb/s
Encoded date                   : UTC 2021-08-16 15:51:45
Writing application            : mkvmerge v55.0.0 ('Waiting For Space') 64-bit
Writing library                : libebml v1.4.2 + libmatroska v1.6.4

Video
ID                             : 1
Format                         : AVC
Format/Info                    : Advanced Video Codec
Format profile                 : High@L4
Format settings                : CABAC / 4 Ref Frames
Format settings, CABAC         : Yes
Format settings, Reference fra : 4 frames
Codec ID                       : V_MPEG4/ISO/AVC
Duration                       : 1 h 47 min
Bit rate mode                  : Variable
Bit rate                       : 5 748 kb/s
Maximum bit rate               : 20.0 Mb/s
Width                          : 1 920 pixels
Height                         : 1 080 pixels
Display aspect ratio           : 16:9
Frame rate mode                : Constant
Frame rate                     : 24.000 FPS
Color space                    : YUV
Chroma subsampling             : 4:2:0
Bit depth                      : 8 bits
Scan type                      : Progressive
Bits/(Pixel*Frame)             : 0.115
Stream size                    : 4.31 GiB (88%)
Writing library                : x264 core 148 r2722 1b0121b
Encoding settings              : cabac=1 / ref=4 / deblock=1:0:0 / analyse=0x3:0x111 / me=umh / subme=10 / psy=1 / psy_rd=1.00:0.00 / mixed_ref=1 / me_range=120 / chroma_me=1 / trellis=2 / 8x8dct=1 / cqm=0 / deadzone=21,11 / fast_pskip=1 / chroma_qp_offset=-2 / threads=8 / lookahead_threads=2 / sliced_threads=0 / nr=0 / decimate=1 / interlaced=0 / bluray_compat=0 / stitchable=1 / constrained_intra=0 / bframes=16 / b_pyramid=2 / b_adapt=2 / b_bias=0 / direct=3 / weightb=1 / open_gop=0 / weightp=2 / keyint=240 / keyint_min=121 / scenecut=0 / intra_refresh=0 / rc_lookahead=240 / rc=crf / mbtree=1 / crf=16.0 / qcomp=0.50 / qpmin=6 / qpmax=51 / qpstep=4 / vbv_maxrate=20000 / vbv_bufsize=25000 / crf_max=0.0 / nal_hrd=vbr / filler=0 / ip_ratio=1.40 / aq=1:0.80
Default                        : Yes
Forced                         : No

Audio
ID                             : 2
Format                         : E-AC-3 JOC
Format/Info                    : Enhanced AC-3 with Joint Object Coding
Commercial name                : Dolby Digital Plus with Dolby Atmos
Codec ID                       : A_EAC3
Duration                       : 1 h 47 min
Bit rate mode                  : Constant
Bit rate                       : 768 kb/s
Channel(s)                     : 6 channels
Channel layout                 : L R C LFE Ls Rs
Sampling rate                  : 48.0 kHz
Frame rate                     : 31.250 FPS (1536 SPF)
Compression mode               : Lossy
Stream size                    : 589 MiB (12%)
Title                          : English
Language                       : English
Service kind                   : Complete Main
Default                        : Yes
Forced                         : No
Complexity index               : 16
Number of dynamic objects      : 15
Bed channel count              : 1 channel
Bed channel configuration      : LFE

Text #1
ID                             : 3
Format                         : UTF-8
Codec ID                       : S_TEXT/UTF8
Codec ID/Info                  : UTF-8 Plain Text
Duration                       : 1 h 45 min
Bit rate                       : 41 b/s
Count of elements              : 1166
Stream size                    : 32.2 KiB (0%)
Title                          : 简体中文
Language                       : Chinese
Default                        : Yes
Forced                         : No

Text #2
ID                             : 4
Format                         : UTF-8
Codec ID                       : S_TEXT/UTF8
Codec ID/Info                  : UTF-8 Plain Text
Duration                       : 1 h 45 min
Bit rate                       : 44 b/s
Count of elements              : 1168
Stream size                    : 34.1 KiB (0%)
Title                          : 繁體中文
Language                       : Chinese
Default                        : No
Forced                         : No

Text #3
ID                             : 5
Format                         : UTF-8
Codec ID                       : S_TEXT/UTF8
Codec ID/Info                  : UTF-8 Plain Text
Duration                       : 1 h 43 min
Bit rate                       : 66 b/s
Count of elements              : 1670
Stream size                    : 50.7 KiB (0%)
Title                          : English
Language                       : English
Default                        : No
Forced                         : No

下载地址

恐惧街[中文字幕].Fear.Street.Part.1.1994.2021.1080p.NF.WEB-DL.DDP5.1.Atmos.x264-10006@BBQDDQ.COM 4.89GB:magnet:?xt=urn:btih:61F8B33847675A8577E39CB154F708FF341A4ADA

恐惧街2[中文字幕].Fear.Street.Part.2.1978.2021.1080p.NF.WEB-DL.DDP5.1.Atmos.x264-10006@BBQDDQ.COM 5.65GB:magnet:?xt=urn:btih:2EEB16124816FF8DFAA01FD001E5F6DBCC873DFE

恐惧街3[中文字幕].Fear.Street.Part.3.1666.2021.1080p.NF.WEB-DL.DDP5.1.Atmos.x264-10006@BBQDDQ.COM 5.11GB:magnet:?xt=urn:btih:4B9134AF4EE5EA74A0845D86BE4731703C84181F

留下评论

Secured By miniOrange