2021日本剧情动作 浪客剑心 最终章 追忆篇 [日语中字][WEB-MKV-1080p]

%title插图%num

◎译  名 浪客剑心 最终章 追忆篇 / 浪客剑心:最终章之追忆篇 / 浪客剑心 真人版5 / 神剑闯江湖:The Beginning / るろうに剣心 最終章 追憶編 / るろうに剣心 続編5
◎片  名 るろうに剣心 最終章 The Beginning
◎年  代 2021
◎产  地 日本
◎类  别 剧情 / 动作 / 冒险
◎语  言 日语
◎上映日期 2021-06-04(日本) / 2021-07-30(日本网络)
◎IMDb评分 8.0/10 (832人评价)
◎IMDb链接 https://www.imdb.com/title/tt11991748/
◎豆瓣评分 8.8/10 (2482人评价)
◎豆瓣链接 https://movie.douban.com/subject/33407124/
◎片  长 137分钟
◎导  演 大友启史 Keishi Ohtomo (id:1318593)
◎编  剧 和月伸宏 Nobuhiro Watsuki (id:1018873)
      大友启史 Keishi Ohtomo (id:1318593)
◎演  员 佐藤健 Takeru Satoh (id:1227580)
      有村架纯 Kasumi Arimura (id:1275528)
      高桥一生 Issey Takahashi (id:1275907)
      北村一辉 Kazuki Kitamura (id:1012650)
      江口洋介 Y?suke Eguchi (id:1088015)
      村上虹郎 Nijiro Murakami (id:1342488)
      安藤政信 Masanobu And? (id:1045426)
      大西信满 SHIMA OHNISHI (id:1324431)
      池内万作 Mansaku Ikeuchi (id:1000031)
      藤本隆宏 Takahiro Fujimoto (id:1320010)
      和田聪宏 Toshihiro Wada (id:1002255)
      中村达也 Tatsuya Nakamura (id:1345585)
      荒木飞羽 Towa Araki (id:1379124)
      洼田正孝 Masataka Kubota (id:1314832)
      平野生成 Kinari Hirano (id:1342277)
      堀田真由 Mayu Hotta (id:1372623)
      一之濑亘 Wataru Ichinose (id:1390547)
      石田法嗣 Hoshi Ishida (id:1197942)
      成田瑛基 Eiki Narita (id:1442745)
      奥野瑛太 Eita Okuno (id:1353121)
      渡边真起子 Makiko Watanabe (id:1051943)
      武井咲 Emi Takei (id:1275344)
      新田真剑佑 Mackenyu Arata (id:1350197)
      青木崇高 Munetaka Aoki (id:1318594)
      苍井优 Yu Aoi (id:1018990)
      伊势谷友介 Y?suke Iseya (id:1110160)
      土屋太凤 Tao Tsuchiya (id:1315335)
      三浦涼介 Ryosuke Miura (id:1314874)
      音尾琢真 Takuma Otoo (id:1004493)
      鹤见辰吾 Shingo Tsurumi (id:1017055)
      中原丈雄 Takeo Nakahara (id:1319743)

◎标  签 佐藤健 / 日本 / 漫画改编 / 动作 / 真人版 / 武士 / 2021 / 浪客剑心

◎简  介
  幕府末期,日本陷入动荡。绯村剑心因剑术高超,被冠以“刽子手拔刀斋”之名,效力于长州藩倒幕部队首领桂小五郎的手下。一天,剑心救下一位名为雪代巴的年轻女子,却被其目睹了杀人行径,他只好将她带到长州藩众人的落脚处。不久后,长州藩武士因池田屋事件引兵上京,随后于禁门之变中战败。剑心与巴以夫妻名义隐居乡间,他第一次感受到了内心的安定。然而,巴的突然失踪打破了这份平静,剑心脸上的十字伤之谜也终于被揭开。

视频信息

General
Unique ID                      : 235750538656510747441120716850092158074 (0xB15BE6F54B6ECA43B82A41F19E49AC7A)
Complete name                  : D:\迅雷下载\Rurouni.Kenshin.The.Beginning.Part.2.2021.WEB-DL.1080p.X264\神剑闯江湖最终章.Rurouni.Kenshin.The.Beginning.Part.2.2021.WEB-DL.1080p.X264.mkv
Format                         : Matroska
Format version                 : Version 2
File size                      : 2.72 GiB
Duration                       : 2 h 18 min
Overall bit rate               : 2 820 kb/s
Encoded date                   : UTC 2021-07-31 02:17:01
Writing application            : mkvmerge v4.8.0 ('I Got The...') 编译于 May 24 2011 03:12:58
Writing library                : libebml v1.2.0 + libmatroska v1.1.0

Video
ID                             : 1
Format                         : AVC
Format/Info                    : Advanced Video Codec
Format profile                 : High@L4.1
Format settings                : CABAC / 4 Ref Frames
Format settings, CABAC         : Yes
Format settings, Reference fra : 4 frames
Muxing mode                    : Header stripping
Codec ID                       : V_MPEG4/ISO/AVC
Duration                       : 2 h 18 min
Bit rate                       : 2 500 kb/s
Width                          : 1 920 pixels
Height                         : 804 pixels
Display aspect ratio           : 2.40:1
Frame rate mode                : Constant
Frame rate                     : 23.976 (23976/1000) FPS
Color space                    : YUV
Chroma subsampling             : 4:2:0
Bit depth                      : 8 bits
Scan type                      : Progressive
Bits/(Pixel*Frame)             : 0.068
Stream size                    : 2.36 GiB (87%)
Writing library                : x264 core 152 r2851M ba24899
Encoding settings              : cabac=1 / ref=4 / deblock=1:-1:-1 / analyse=0x3:0x113 / me=umh / subme=9 / psy=1 / psy_rd=1.00:0.15 / mixed_ref=1 / me_range=24 / chroma_me=1 / trellis=2 / 8x8dct=1 / cqm=0 / deadzone=21,11 / fast_pskip=1 / chroma_qp_offset=-3 / threads=32 / lookahead_threads=4 / sliced_threads=0 / nr=0 / decimate=1 / interlaced=0 / bluray_compat=0 / constrained_intra=0 / bframes=3 / b_pyramid=2 / b_adapt=2 / b_bias=0 / direct=3 / weightb=1 / open_gop=0 / weightp=2 / keyint=250 / keyint_min=25 / scenecut=40 / intra_refresh=0 / rc_lookahead=50 / rc=2pass / mbtree=1 / bitrate=2500 / ratetol=1.0 / qcomp=0.60 / qpmin=0 / qpmax=69 / qpstep=4 / cplxblur=20.0 / qblur=0.5 / vbv_maxrate=31250 / vbv_bufsize=31250 / nal_hrd=none / filler=0 / ip_ratio=1.40 / aq=3:1.00
Default                        : Yes
Forced                         : No

Audio
ID                             : 2
Format                         : AC-3
Format/Info                    : Audio Coding 3
Commercial name                : Dolby Digital
Muxing mode                    : Header stripping
Codec ID                       : A_AC3
Duration                       : 2 h 18 min
Bit rate mode                  : Constant
Bit rate                       : 320 kb/s
Channel(s)                     : 6 channels
Channel layout                 : L R C LFE Ls Rs
Sampling rate                  : 48.0 kHz
Frame rate                     : 31.250 FPS (1536 SPF)
Compression mode               : Lossy
Stream size                    : 316 MiB (11%)
Service kind                   : Complete Main
Default                        : Yes
Forced                         : No

Text
ID                             : 3
Format                         : SSA
Codec ID                       : S_TEXT/SSA
Codec ID/Info                  : Sub Station Alpha
Compression mode               : Lossless
Default                        : Yes
Forced                         : No

视频截图

下载地址

Rurouni.Kenshin.The.Beginning.Part.2.2021.WEB-DL.1080p.X264 2.72GB:magnet:?xt=urn:btih:5E4E314EECC5AA1756CF7557EEB82AEA8E01A59D

Rurouni.Kenshin.The.Final.Part.1.2021.WEB-DL.1080p.X264 2.68GB:magnet:?xt=urn:btih:4420F1DDF7E0624159FAAD8DBAF014D40C589F62

浪客剑心TV96+剧场版+电影+3部曲+漫画完全版 114.4GB:magnet:?xt=urn:btih:c2e9458c41dbe3bebba19ee88ee52117e22213d0&tr=http://open.acgtracker.com:1096/announce

留下评论

Secured By miniOrange