[2021中国剧情动作]《硬汉枪神》[国语中字][WEB-MKV-1080p/2160p(4k)]

%title插图%num

◎译  名 硬汉枪神 / Biubiubiu
◎年  代 2021
◎产  地 中国大陆
◎类  别 剧情 / 动作 / 冒险
◎语  言 汉语普通话
◎上映日期 2021-08-06(中国大陆网络)
◎豆瓣评分 7.3/10 (12018人评价)
◎豆瓣链接 https://movie.douban.com/subject/35464967/
◎片  长 116分钟
◎导  演 胡国瀚 Guohan Hu (id:1430871)
       周思尧 Siyao Zhou (id:1365844)
◎编  剧 胡国瀚 Guohan Hu (id:1430871)
       朱若萌 Ruomeng Zhu (id:1460046)
       周思尧 Siyao Zhou (id:1365844)
       史册 Ce Shi (id:1459976)
       李宏晖 Honghui Li (id:1459973)
◎演  员 薛闻君 Wenjun Jiang (id:1362997)
       李庆誉 Qingyu Li (id:1408302)
       谭晓凡 Xiaofan Tan (id:1411237)
       曲羿成 Yicheng Qu (id:1459974)
       张璐瑶 Luyao Zhang (id:1405009)
       柴园乐 Francis (id:1426587)
       曹语南 Yunan Cao (id:1459975)
       周中和 Zhonghe Zhou (id:1343200)
       闫紫境 Zijing Yan (id:1417249)
       孤存  (id:1459972)

◎标  签 吃鸡游戏题材 / 网络电影 / 热血励志逆袭 / 国产 / 2021观影 / 电影 / 超感人 / 爆米花电影

◎简  介
  生活落魄的游戏大神肖汉,被前妻逼迫放弃儿子抚养权。于是,他不得不参加一场奖金500万的吃鸡比赛,买下学区房争取儿子抚养权。他恳求在卖烤串的昔日战友加入,并组建了一支临时战队,一路横冲直撞进入决赛。不料,在比赛的紧要关头,等待这支“废柴小队”的却是对手的挑衅、和一系列暗箱操作……

视频信息

General
Complete name                  : D:\迅雷下载\【更多高清电影访问 www.BBQDDQ.com】硬汉枪神.Biubiubiu.2021.2160p.WEB-DL.H265.AAC-10006@BBQDDQ.COM 3.41GB\硬汉枪神.Biubiubiu.2021.2160p.WEB-DL.H265.AAC-10006@BBQDDQ.COM.mp4
Format                         : MPEG-4
Format profile                 : Base Media
Codec ID                       : isom (isom/iso2/mp41)
File size                      : 3.41 GiB
Duration                       : 1 h 57 min
Overall bit rate mode          : Variable
Overall bit rate               : 4 167 kb/s
Writing application            : Lavf58.76.100

Video
ID                             : 1
Format                         : HEVC
Format/Info                    : High Efficiency Video Coding
Format profile                 : Main 10@L5@Main
Codec ID                       : hev1
Codec ID/Info                  : High Efficiency Video Coding
Duration                       : 1 h 57 min
Bit rate                       : 3 971 kb/s
Width                          : 3 840 pixels
Height                         : 1 636 pixels
Display aspect ratio           : 2.35:1
Original display aspect ratio  : 2.35:1
Frame rate mode                : Constant
Frame rate                     : 24.000 FPS
Color space                    : YUV
Chroma subsampling             : 4:2:0
Bit depth                      : 10 bits
Bits/(Pixel*Frame)             : 0.026
Stream size                    : 3.25 GiB (95%)
Color range                    : Limited
Color primaries                : BT.709
Transfer characteristics       : BT.709
Matrix coefficients            : BT.709
Codec configuration box        : hvcC

Audio
ID                             : 2
Format                         : AAC LC
Format/Info                    : Advanced Audio Codec Low Complexity
Codec ID                       : mp4a-40-2
Duration                       : 1 h 57 min
Bit rate mode                  : Variable
Bit rate                       : 192 kb/s
Channel(s)                     : 2 channels
Channel layout                 : L R
Sampling rate                  : 44.1 kHz
Frame rate                     : 43.066 FPS (1024 SPF)
Compression mode               : Lossy
Stream size                    : 159 MiB (5%)
Default                        : Yes
Alternate group                : 1

视频截图

下载地址

硬汉枪神.Biubiubiu.2021.1080p.WEB-DL.H264.AAC-10006@BBQDDQ.COM 1.12GB:magnet:?xt=urn:btih:25CF341BFBB0A4AD1A6B5B9E3EBF2146A8BDE10E

硬汉枪神.Biubiubiu.2021.2160p.WEB-DL.H265.AAC-10006@BBQDDQ.COM 3.41GB:magnet:?xt=urn:btih:599630EFB5DA25D8B5A866D4C468FE64035E3433

留下评论

Secured By miniOrange