Spiral: From the Book of Saw:电锯惊魂9:漩涡 WEB-MKV-1080p/2160p(4k) 附电锯惊魂1-8

%title插图%num

◎译  名 电锯惊魂9:漩涡/《电锯惊魂》重启版/SAW: The Organ Donor/Spiral/The Organ Donor/新电锯惊魂/死亡漩涡:夺魂锯新游戏(台)/漩涡:恐惧斗室新游戏(港)/电锯惊魂9/电锯惊魂9:螺旋
◎片  名 Spiral: From the Book of Saw
◎年  代 2021
◎产  地 美国,加拿大
◎类  别 悬疑 / 惊悚 / 恐怖
◎语  言 英语
◎上映日期 2021-05-14(美国)
◎豆瓣评分 6.2/10 from 442 users
◎豆瓣链接 https://movie.douban.com/subject/33450426/
◎片  长 93分钟
◎导  演 达伦·林恩·鲍斯曼 Darren Lynn Bousman
◎编  剧 乔什·斯托博格 Josh Stolberg / 皮特·古德芬格 Pete Goldfinger / 克里斯·洛克 Chris Rock
◎主  演 克里斯·洛克 Chris Rock
      塞缪尔·杰克逊 Samuel L. Jackson
      麦克思·明格拉 Max Minghella
      马利索·妮可 Marisol Nichols
      摩根·大卫·琼斯 Morgan David Jones
      阿莉·约翰逊 Ali Johnson
      弗兰克·利卡里 Frank Licari
      约翰·托卡特利迪斯 John Tokatlidis
      佐伊·帕尔默 Zoie Palmer
      丹·皮特隆杰维奇 Dan Petronijevic
      理查德·泽皮里 Richard Zeppieri
      伊迪·英克斯特 Edie Inksetter
      莱拉·丽 Leila Leigh
      克里斯托弗·泰 Christopher Tai
      盖内尔·威廉姆斯 Genelle Williams
      莱昂尼达斯·卡斯特罗尼斯 Leonidas Castrounis
      克里斯·柯林斯 K.C. Collins
      纳齐恩·康特拉科特 Nazneen Contractor
      卢克·加洛 Luke Gallo
      乔什·斯托博格 Josh Stolberg

◎标  签 电锯惊魂 | 恐怖 | 惊悚 | 美国 | 犯罪 | 系列 | 血腥 | 悬疑

◎简  介

老鸟警探(塞缪尔·杰克逊 Samuel L. Jackson 饰)带领警探(克里斯·洛克 Chris Rock 饰)调查惨绝人寰的连环杀警案,“拼图杀人魔”重出江湖的传言,再度勾起所有人心中的恐惧。这次新的游戏规则,似乎直冲警察而来。每个命案现场留下的“死亡漩涡”,将把他们卷进难以抽身的血腥深渊之中……

《电锯惊魂》第九部由第8部的两位编剧皮特·古德芬格和乔什·斯托伯格撰写剧本。执导了《电锯惊魂234》的达伦·林恩·鲍斯曼此番回归执导。

视频信息

General
 Unique ID                      : 2409651251971120884791775533868379520 (0x1D014FAAFB4A44D972905997161ED80)
 Complete name                  : E:\追光寻影(www.sjgy99.com)电锯惊魂9:漩涡Spiral.From.the.Book.of.Saw.2021.2160p.AMZN.WEB-DL.DDP5.1.x265-中文.中英字幕.mkv
 Format                         : Matroska
 Format version                 : Version 4
 File size                      : 10.0 GiB
 Duration                       : 1 h 33 min
 Overall bit rate               : 15.4 Mb/s
 Movie name                     : Spiral.From.the.Book.of.Saw.2021.CMRG
 Encoded date                   : UTC 2021-06-01 19:48:25
 Writing application            : mkvmerge v39.0.0 ('In The Waiting Line') 64-bit
 Writing library                : libebml v1.3.9 + libmatroska v1.5.2
 Video
 ID                             : 1
 Format                         : HEVC
 Format/Info                    : High Efficiency Video Coding
 Format profile                 : Main@L5@Main
 Codec ID                       : V_MPEGH/ISO/HEVC
 Duration                       : 1 h 33 min
 Bit rate                       : 14.7 Mb/s
 Width                          : 3 840 pixels
 Height                         : 1 600 pixels
 Display aspect ratio           : 2.40:1
 Frame rate mode                : Constant
 Frame rate                     : 23.976 (24000/1001) FPS
 Color space                    : YUV
 Chroma subsampling             : 4:2:0
 Bit depth                      : 8 bits
 Bits/(Pixel*Frame)             : 0.100
 Stream size                    : 9.57 GiB (96%)
 Title                          : 追光寻影(www.sjgy99.com)电锯惊魂9:漩涡Spiral.From.the.Book.of.Saw.2021.2160p.AMZN.WEB-DL.DDP5.1.HEVC-中文.中英字幕
 Default                        : Yes
 Forced                         : No
 Color range                    : Limited
 Color primaries                : BT.709
 Transfer characteristics       : BT.709
 Matrix coefficients            : BT.709
 Audio
 ID                             : 2
 Format                         : E-AC-3
 Format/Info                    : Enhanced AC-3
 Commercial name                : Dolby Digital Plus
 Codec ID                       : A_EAC3
 Duration                       : 1 h 33 min
 Bit rate mode                  : Constant
 Bit rate                       : 640 kb/s
 Channel(s)                     : 6 channels
 Channel layout                 : L R C LFE Ls Rs
 Sampling rate                  : 48.0 kHz
 Frame rate                     : 31.250 FPS (1536 SPF)
 Compression mode               : Lossy
 Stream size                    : 426 MiB (4%)
 Title                          : English
 Language                       : English
 Service kind                   : Complete Main
 Default                        : No
 Forced                         : No
 Text #1
 ID                             : 3
 Format                         : ASS
 Codec ID                       : S_TEXT/ASS
 Codec ID/Info                  : Advanced Sub Station Alpha
 Duration                       : 1 h 25 min
 Bit rate                       : 169 b/s
 Count of elements              : 1254
 Compression mode               : Lossless
 Stream size                    : 106 KiB (0%)
 Language                       : Chinese
 Default                        : Yes
 Forced                         : No
 Text #2
 ID                             : 4
 Format                         : PGS
 Muxing mode                    : zlib
 Codec ID                       : S_HDMV/PGS
 Codec ID/Info                  : Picture based subtitle format used on BDs/HD-DVDs
 Duration                       : 1 h 26 min
 Bit rate                       : 51.0 kb/s
 Count of elements              : 2033
 Stream size                    : 31.7 MiB (0%)
 Language                       : Chinese
 Default                        : No
 Forced                         : No
 Text #3
 ID                             : 5
 Format                         : UTF-8
 Codec ID                       : S_TEXT/UTF8
 Codec ID/Info                  : UTF-8 Plain Text
 Duration                       : 1 h 25 min
 Bit rate                       : 53 b/s
 Count of elements              : 1254
 Stream size                    : 33.7 KiB (0%)
 Language                       : Chinese
 Default                        : No
 Forced                         : No
 Text #4
 ID                             : 6
 Format                         : UTF-8
 Codec ID                       : S_TEXT/UTF8
 Codec ID/Info                  : UTF-8 Plain Text
 Duration                       : 1 h 26 min
 Bit rate                       : 67 b/s
 Count of elements              : 1440
 Stream size                    : 42.6 KiB (0%)
 Title                          : English [SDH]
 Language                       : English
 Default                        : No
 Forced                         : No

视频截图

下载地址

电锯惊魂9:漩涡Spiral.From.the.Book.of.Saw.2021.1080p.AMZN.WEBRip.DDP5.1.x264-中文.中英字幕 5.72GB:magnet:?xt=urn:btih:E6D3936C75D3932ABA0D8FC4AC76D587CF1A2616

电锯惊魂9:漩涡Spiral.From.the.Book.of.Saw.2021.2160p.AMZN.WEB-DL.DDP5.1.x265-中文.中英字幕 10.01GB:magnet:?xt=urn:btih:6AA620F5D95977F0EA4BE30EECFB1C780CCF08D6

电锯惊魂.1-8.2004-2017.Bluray.1080p.H265.10Bits-乐之音 27.57GB:magnet:?xt=urn:btih:E233D29D6D81F4D653D678B3C1AAF2E37458A73F

电锯惊魂八部合集 内封中字 .BluRay.1080p.x265.10bit.MNHD-FRDS 41.25GB:magnet:?xt=urn:btih:446C5920DCB68EBF25FA009B1FA42E43F72F7EA5

留下评论

Secured By miniOrange