Kimetsu no Yaiba: Mugen Ressha-Hen:鬼灭之刃 剧场版 无限列车篇

%title插图%num

◎译  名 鬼灭之刃 剧场版 无限列车篇/Demon Slayer -Kimetsu No Yaiba- The Movie: Mugen Train/Kimetsu no Yaiba: Mugen Ressha-Hen
◎片  名 劇場版 鬼滅の刃 無限列車編
◎年  代 2020
◎产  地 日本
◎类  别 动画
◎语  言 日语
◎上映日期 2020-10-16(日本)
◎IMDb评分  8.4/10 from 23460 users
◎IMDb链接  https://www.imdb.com/title/tt11032374/
◎豆瓣评分 8.0/10 from 50166 users
◎豆瓣链接 https://movie.douban.com/subject/34845781/
◎片  长 117分钟
◎导  演 外崎春雄 Sotozaki Haruo
◎编  剧 吾峠呼世晴 Koyoharu Gotouge
◎主  演 花江夏树 Natsuki Hanae
鬼头明里 Akari Kitō
下野纮 Hiro Shimono
松冈祯丞 Yoshitsugu Matsuoka
日野聪 Satoshi Hino
平川大辅 Daisuke Hirakawa
石田彰 Akira Ishida
樱井孝宏 Takahiro Sakurai
小西克幸 Katsuyuki Konishi
早见沙织 Saori Hayami
铃村健一 Kenichi Suzumura
关智一 Tomokazu Seki
杉田智和 Tomokazu Sugita
森川智之 Toshiyuki Morikawa
佐藤利奈 Rina Satou
三木真一郎 Shinichirô Miki
桑岛法子 Houko Kuwashima
本渡枫 Kaede Hondo
大地叶 You Taichi
小原好美 Konomi Kohara
古贺葵 Aoi Koga
小山力也 Rikiya Koyama
丰口惠美 Megumi Toyoguchi
榎木淳弥 Junya Enoki
伊濑茉莉也 Mariya Ise
笠间淳 Jun Kasama
千本木彩花 Sayaka Senbongi
江口拓也 Takuya Eguchi
山村响 Hibiku Yamamura
广濑裕也 Yuya Hirose
高桥伸也 Takahashi Shinya
仲村宗悟 Nakamura Shuugo
中惠光城 Mitsuki Nakae
◎简  介
该片基于吾峠呼世所著漫画《鬼灭之刃》创作而成,是2019年播出的TV动画的续篇,讲述灶门炭治郎和炼狱杏寿郎与下弦之壹魇梦作战的故事。
◎获奖情况
第44届日本电影学院奖  (2021)
最佳动画片
最佳配乐 椎名豪 / 梶浦由记
第25届金卫星奖  (2021)
电影部门最佳动画片(提名)

视频信息

General
 Unique ID                      : 133145907887489683232208110826870803783 (0x642AF816C2F6B715DD2273458E0C0D47)
 Complete name                  : D:\迅雷下载[SAIO-Raws] Kimetsu no Yaiba Mugen Ressha Hen [BD 1920x1080 HEVC-10bit OPUSx4 AS.mkv
 Format                         : Matroska
 Format version                 : Version 4
 File size                      : 3.38 GiB
 Duration                       : 1 h 56 min
 Overall bit rate               : 4 137 kb/s
 Encoded date                   : UTC 2021-06-16 22:58:01
 Writing application            : mkvmerge v48.0.0 ('Fortress Around Your Heart') 64-bit
 Writing library                : libebml v1.4.0 + libmatroska v1.6.0 / Lavf58.45.100
 Attachments                    : 方正中粗雅宋_GBK.TTF
 Video
 ID                             : 1
 Format                         : HEVC
 Format/Info                    : High Efficiency Video Coding
 Format profile                 : Main 10@L5@Main
 Codec ID                       : V_MPEGH/ISO/HEVC
 Duration                       : 1 h 56 min
 Bit rate                       : 3 202 kb/s
 Width                          : 1 920 pixels
 Height                         : 1 080 pixels
 Display aspect ratio           : 16:9
 Frame rate mode                : Constant
 Frame rate                     : 23.976 (24000/1001) FPS
 Color space                    : YUV
 Chroma subsampling             : 4:2:0
 Bit depth                      : 10 bits
 Bits/(Pixel*Frame)             : 0.064
 Stream size                    : 2.61 GiB (77%)
 Writing library                : x265 3.5+dev-681c05e83:[Windows][GCC 10.2.0][64 bit] 10bit
 Encoding settings              : cpuid=1111039 / frame-threads=3 / numa-pools=8 / wpp / no-pmode / no-pme / no-psnr / no-ssim / log-level=0 / input-csp=1 / input-res=1920x1080 / interlace=0 / total-frames=0 / level-idc=0 / high-tier=1 / uhd-bd=0 / ref=6 / no-allow-non-conformance / no-repeat-headers / annexb / no-aud / no-hrd / info / hash=0 / no-temporal-layers / open-gop / min-keyint=24 / keyint=250 / gop-lookahead=0 / bframes=8 / b-adapt=2 / b-pyramid / bframe-bias=0 / rc-lookahead=60 / lookahead-slices=4 / scenecut=40 / hist-scenecut=0 / radl=0 / no-splice / no-intra-refresh / ctu=64 / min-cu-size=8 / rect / no-amp / max-tu-size=32 / tu-inter-depth=1 / tu-intra-depth=1 / limit-tu=0 / rdoq-level=2 / dynamic-rd=0.00 / no-ssim-rd / signhide / no-tskip / nr-intra=0 / nr-inter=0 / no-constrained-intra / strong-intra-smoothing / max-merge=5 / limit-refs=3 / limit-modes / me=3 / subme=5 / merange=57 / temporal-mvp / no-frame-dup / no-hme / weightp / no-weightb / no-analyze-src-pics / deblock=0:0 / sao / no-sao-non-deblock / rd=4 / selective-sao=4 / no-early-skip / rskip / no-fast-intra / no-tskip-fast / no-cu-lossless / no-b-intra / no-splitrd-skip / rdpenalty=0 / psy-rd=1.50 / psy-rdoq=1.50 / no-rd-refine / no-lossless / cbqpoffs=0 / crqpoffs=0 / rc=crf / crf=18.0 / qcomp=0.60 / qpstep=4 / stats-write=0 / stats-read=0 / ipratio=1.40 / pbratio=1.30 / aq-mode=3 / aq-strength=0.82 / cutree / zone-count=0 / no-strict-cbr / qg-size=32 / no-rc-grain / qpmax=69 / qpmin=0 / no-const-vbv / sar=1 / overscan=0 / videoformat=5 / range=0 / colorprim=2 / transfer=2 / colormatrix=2 / chromaloc=0 / display-window=0 / cll=0,0 / min-luma=0 / max-luma=1023 / log2-max-poc-lsb=8 / vui-timing-info / vui-hrd-info / slices=1 / no-opt-qp-pps / no-opt-ref-list-length-pps / no-multi-pass-opt-rps / scenecut-bias=0.05 / hist-threshold=0.03 / no-opt-cu-delta-qp / no-aq-motion / no-hdr10 / no-hdr10-opt / no-dhdr10-opt / no-idr-recovery-sei / analysis-reuse-level=0 / analysis-save-reuse-level=0 / analysis-load-reuse-level=0 / scale-factor=0 / refine-intra=0 / refine-inter=0 / refine-mv=1 / refine-ctu-distortion=0 / no-limit-sao / ctu-info=0 / no-lowpass-dct / refine-analysis-type=0 / copy-pic=1 / max-ausize-factor=1.0 / no-dynamic-refine / no-single-sei / no-hevc-aq / no-svt / no-field / qp-adaptation-range=3.00 / no-scenecut-aware-qpconformance-window-offsets / right=0 / bottom=0 / decoder-max-rate=0 / no-vbv-live-multi-pass
 Default                        : Yes
 Forced                         : No
 Color range                    : Limited
 Color primaries                : BT.709
 Transfer characteristics       : BT.709
 Matrix coefficients            : BT.709
 Audio #1
 ID                             : 2
 Format                         : Opus
 Codec ID                       : A_OPUS
 Duration                       : 1 h 56 min
 Bit rate                       : 180 kb/s
 Channel(s)                     : 2 channels
 Channel layout                 : L R
 Sampling rate                  : 48.0 kHz
 Frame rate                     : 50.000 FPS (960 SPF)
 Compression mode               : Lossy
 Delay relative to video        : 29 ms
 Stream size                    : 150 MiB (4%)
 Language                       : Japanese
 Default                        : Yes
 Forced                         : No
 Audio #2
 ID                             : 3
 Format                         : Opus
 Codec ID                       : A_OPUS
 Duration                       : 1 h 56 min
 Bit rate                       : 375 kb/s
 Channel(s)                     : 6 channels
 Channel layout                 : L R C Lb Rb LFE
 Sampling rate                  : 48.0 kHz
 Frame rate                     : 50.000 FPS (960 SPF)
 Compression mode               : Lossy
 Delay relative to video        : 36 ms
 Stream size                    : 314 MiB (9%)
 Language                       : Japanese
 Default                        : No
 Forced                         : No
 Audio #3
 ID                             : 4
 Format                         : Opus
 Codec ID                       : A_OPUS
 Duration                       : 1 h 56 min
 Bit rate                       : 184 kb/s
 Channel(s)                     : 2 channels
 Channel layout                 : L R
 Sampling rate                  : 48.0 kHz
 Frame rate                     : 50.000 FPS (960 SPF)
 Compression mode               : Lossy
 Delay relative to video        : 29 ms
 Stream size                    : 154 MiB (4%)
 Language                       : Japanese
 Default                        : No
 Forced                         : No
 Audio #4
 ID                             : 5
 Format                         : Opus
 Codec ID                       : A_OPUS
 Duration                       : 1 h 56 min
 Bit rate                       : 178 kb/s
 Channel(s)                     : 2 channels
 Channel layout                 : L R
 Sampling rate                  : 48.0 kHz
 Frame rate                     : 50.000 FPS (960 SPF)
 Compression mode               : Lossy
 Delay relative to video        : 29 ms
 Stream size                    : 149 MiB (4%)
 Language                       : Japanese
 Default                        : No
 Forced                         : No
 Text #1
 ID                             : 6
 Format                         : ASS
 Codec ID                       : S_TEXT/ASS
 Codec ID/Info                  : Advanced Sub Station Alpha
 Duration                       : 1 h 51 min
 Bit rate                       : 79 b/s
 Count of elements              : 1292
 Compression mode               : Lossless
 Stream size                    : 64.7 KiB (0%)
 Title                          : CHS
 Default                        : Yes
 Forced                         : No
 Text #2
 ID                             : 7
 Format                         : ASS
 Codec ID                       : S_TEXT/ASS
 Codec ID/Info                  : Advanced Sub Station Alpha
 Duration                       : 1 h 52 min
 Bit rate                       : 78 b/s
 Count of elements              : 1293
 Compression mode               : Lossless
 Stream size                    : 64.8 KiB (0%)
 Title                          : CHT
 Default                        : No
 Forced                         : No
 Menu
 00:00:00.000                   : :Chapter 1
 00:05:28.829                   : :Chapter 2
 00:16:10.678                   : :Chapter 3
 00:23:02.590                   : :Chapter 4
 00:35:00.724                   : :Chapter 5
 00:44:45.683                   : :Chapter 6
 00:50:19.934                   : :Chapter 7
 01:00:58.572                   : :Chapter 8
 01:06:12.260                   : :Chapter 9
 01:19:23.092                   : :Chapter 10
 01:31:04.751                   : :Chapter 11
 01:47:11.216                   : :Chapter 12
 01:51:55.876                   : :Chapter 13

视频截图

下载地址

[SAIO-Raws] Kimetsu no Yaiba Mugen Ressha Hen [BD 1920×1080 HEVC-10bit OPUSx4] 3.38GB:magnet:?xt=urn:btih:48023AB43DFBD91B17001295C88F4DAF017FCFAA

鬼灭之刃剧场版 无限列车篇.国粤日三语中字.Demon.Slayer.Mugen.Train.2020.1080p.Blu.DTS-纯净版 9.01GB:magnet:?xt=urn:btih:372D428BEC9A2079A4FF88944898774AE85E2608

[SAIO-Raws] 鬼灭之刃 Kimetsu no Yaiba 1-26 [BD 1920×1080 HEVC-10bit OPUS][简繁内封字幕] 15.53GB:magnet:?xt=urn:btih:079B0CAB3CB7E3677F6BF0B18BB47C575080BAC2

[Lilith-Raws] 《鬼灭之刃》全26话 繁体 MKV-1080p 日语 21.54GB:magnet:?xt=urn:btih:96976D8DF3CB8D6439737F26F0D79EF8DAE08940

[Lilith-Raws] 《鬼灭之刃》全26话 繁体 MKV-1080p 国语 21.53GB:magnet:?xt=urn:btih:328A9C6332C2CE948BF4A6E4A9E1DC66A731CE16

留下评论

Secured By miniOrange