灵笼: INCARNATION 第01-12集+中章+终章+SPv2

%title插图%num

◎译  名 Incarnation
◎片  名 灵笼
◎年  代 2019
◎产  地 中国大陆
◎类  别 动画
◎语  言 汉语普通话
◎上映日期 2019-07-13(中国大陆)
◎豆瓣评分 0/10 from 0 users
◎豆瓣链接 https://movie.douban.com/subject/27121260/
◎片  长 30分钟
◎导  演 董汪汪 Wangwang Dong
◎编  剧 董汪汪 Wangwang Dong
◎主  演 黄莺 Ying Huang
李元韬 Yuantao Li
陶典 Dian Tao
程玉珠 Yuzhu Cheng
夏一可 Yike Xia
◎标  签 国产动画 | 艺画开天 | 国漫 | 国漫良心 | 动漫 | 史诗级 | 中国 | 动画
◎简  介
不久的未来,人类的世界早已拥挤不堪,迈向星河、寻找新家园的行动迫在眉捷。正当一切有条不紊的推进之时,月相异动,脚下的大地爆发了长达数十年、剧烈的地质变化,人类在这场浩劫中所剩无几。当天地逐渐恢复平静,人们从废墟和深渊中重新踏上了这片熟悉而又陌生的大地。习惯了主宰一切的我们是否还是这个世界的主人?

视频信息

General
 Complete name                  : D:\迅雷下载\灵笼[GM-Team][国漫][灵笼:INCARNATION][Spirit Cage:Incarnation][2021][终章 下][AVC][GB][1080P].mp4
 Format                         : MPEG-4
 Format profile                 : Base Media
 Codec ID                       : isom (isom/iso2/avc1/mp41)
 File size                      : 2.07 GiB
 Duration                       : 48 min 12 s
 Overall bit rate               : 6 160 kb/s
 Writing application            : Lavf58.74.100
 Video
 ID                             : 1
 Format                         : AVC
 Format/Info                    : Advanced Video Codec
 Format profile                 : High@L4
 Format settings                : CABAC / 4 Ref Frames
 Format settings, CABAC         : Yes
 Format settings, Reference fra : 4 frames
 Codec ID                       : avc1
 Codec ID/Info                  : Advanced Video Coding
 Duration                       : 48 min 12 s
 Bit rate                       : 5 834 kb/s
 Width                          : 1 920 pixels
 Height                         : 1 080 pixels
 Display aspect ratio           : 16:9
 Frame rate mode                : Constant
 Frame rate                     : 25.000 FPS
 Color space                    : YUV
 Chroma subsampling             : 4:2:0
 Bit depth                      : 8 bits
 Scan type                      : Progressive
 Bits/(Pixel*Frame)             : 0.113
 Stream size                    : 1.96 GiB (95%)
 Writing library                : BiliBili H264 Encoder v1.0
 Color range                    : Limited
 Color primaries                : BT.709
 Transfer characteristics       : BT.709
 Matrix coefficients            : BT.709
 Codec configuration box        : avcC
 Audio
 ID                             : 2
 Format                         : AAC LC
 Format/Info                    : Advanced Audio Codec Low Complexity
 Codec ID                       : mp4a-40-2
 Duration                       : 48 min 12 s
 Source duration                : 48 min 12 s
 Bit rate mode                  : Constant
 Bit rate                       : 321 kb/s
 Channel(s)                     : 2 channels
 Channel layout                 : L R
 Sampling rate                  : 48.0 kHz
 Frame rate                     : 46.875 FPS (1024 SPF)
 Compression mode               : Lossy
 Stream size                    : 110 MiB (5%)
 Source stream size             : 110 MiB (5%)
 Default                        : Yes
 Alternate group                : 1
 mdhd_Duration                  : 2892371

视频截图

下载地址

[GM-Team][国漫][灵笼:INCARNATION][Spirit Cage:Incarnation][2019][01][AVC][GB][1080P].mp4
大小:1.72GB magnet:?xt=urn:btih:149BBE666DE478D5C4A4CDA267AD20572ACF759D
[GM-Team][国漫][灵笼:INCARNATION][Spirit Cage:Incarnation][2019][02][AVC][GB][1080P].mp4
大小:1.27GB magnet:?xt=urn:btih:CBFD082E78ED97E811A70A3D204E1672F9E901FC
[GM-Team][国漫][灵笼:INCARNATION][Spirit Cage:Incarnation][2019][03][AVC][GB][1080P].mp4
大小:1.24GB magnet:?xt=urn:btih:C8E50030F2665973BD996D9FE77F5E6D0A912506
[GM-Team][国漫][灵笼:INCARNATION][Spirit Cage:Incarnation][2019][04][AVC][GB][1080P].mp4
大小:974.11MB magnet:?xt=urn:btih:60FE325CA3CFA10413019B05AEC0C11F832194CB
[GM-Team][国漫][灵笼:INCARNATION][Spirit Cage:Incarnation][2019][05][AVC][GB][1080P].mp4
大小:1.02GB magnet:?xt=urn:btih:20F4D72BC7EF36CCB5F5339DD1275772FFEDE047
[GM-Team][国漫][灵笼:INCARNATION][Spirit Cage:Incarnation][2019][06][AVC][GB][1080P].mp4
大小:842.9MB magnet:?xt=urn:btih:572ECF4D09DB32508942840E012A1972207CC0F3
[GM-Team][国漫][灵笼:INCARNATION][Spirit Cage:Incarnation][2019][中章][AVC][GB][1080P][No Logo].mp4
大小:758.08MB magnet:?xt=urn:btih:F564C959C8303EB3EC17CCF5BA0D7353DAD4FDDE
[GM-Team][国漫][灵笼:INCARNATION][Spirit Cage:Incarnation][2020][07][AVC][GB][1080P].mp4
大小:1.35GB magnet:?xt=urn:btih:BC55CCFC0E372BB3F2B987ADAB1E6DA1F9A3F543
[GM-Team][国漫][灵笼:INCARNATION][Spirit Cage:Incarnation][2020][08][AVC][GB][1080P].mp4
大小:1.27GB magnet:?xt=urn:btih:933DFD4F95C13D5F6502ADB2C7DC652D031634DE
[GM-Team][国漫][灵笼:INCARNATION][Spirit Cage:Incarnation][2020][09][AVC][GB][1080P].mp4
大小:1.41GB magnet:?xt=urn:btih:433A0FA070EB15EA50FCBDAA12AE02EFE4A22DC6
[GM-Team][国漫][灵笼:INCARNATION][Spirit Cage:Incarnation][2020][10][AVC][GB][1080P].mp4
大小:1.17GB magnet:?xt=urn:btih:A8C29C19161A7573DDBB249C45E3D3231C653E34
[GM-Team][国漫][灵笼:INCARNATION][Spirit Cage:Incarnation][2020][11][AVC][GB][1080P].mp4
大小:800.53MB magnet:?xt=urn:btih:FB84D65AC456D6C98D64B7B3174AA33BA047A204
[GM-Team][国漫][灵笼:INCARNATION][Spirit Cage:Incarnation][2020][12][AVC][GB][1080P].mp4
大小:749.84MB magnet:?xt=urn:btih:8EC37B4D0AC5358C77F7CBF39BEB38B8DE308B8C
[GM-Team][国漫][灵笼:INCARNATION][Spirit Cage:Incarnation][2021][终章 上][AVC][GB][1080P].mp4
大小:1.5GB magnet:?xt=urn:btih:E0172F9C5D99309885DF3CCC5E28C75DAD8295F2
[GM-Team][国漫][灵笼:INCARNATION][Spirit Cage:Incarnation][2021][终章 下][AVC][GB][1080P].mp4
大小:2.07GB magnet:?xt=urn:btih:4FDD7D45B3DDC47C4145346A2B8F898725FE2ED2
[GM-Team][国漫][灵笼:INCARNATION][Spirit Cage:Incarnation][2021][SP][AVC][GB][1080P].mp4
大小:1.82GB magnet:?xt=urn:btih:E0832FA0906CAE06BD8E5DB2B9406EFEBE38DB4E
[GM-Team][国漫][灵笼:INCARNATION][Spirit Cage:Incarnation][2021][SP][AVC][GB][1080P].V2.mp4
大小:1.82GB magnet:?xt=urn:btih:17334BC027DF69F82933267F3BE3FC221DCF804D

留下评论

Secured By miniOrange