侠岚 1-7季

%title插图%num

《侠岚》,是由北京若森数字科技有限公司制作,集热血、励志、神话题材、具备国际水准的3D技术于一身,并融入大量中国传统文化元素的大型三维动画连续剧 。也是一部在电视首播的中国魔幻武侠类动画片。

该动画第一至四季于2012年1月29日在中央电视台少儿频道以每周一至周五19点的形式首播,并与网络平台爱奇艺同步播出。到第五至七季在各大视频网站以每周五12点一集的形式播出。第一至七季已完结,第八季待上映。

简介

上古的封印即将消失,邪恶的势力蠢蠢欲动,万零之王——“穹奇”将突破无极之渊,面对即将到来的天下浩劫,只有一群人能阻止其为祸世间。他们居于山谷之间,各怀绝技,传说他们保藏着一个天大的秘密。他们像山间的雾气,有质,却无形。他们的名字在坊间流传,他们的样貌却鲜有人知。于无声处,他们静伏着,等待那惊雷甫现的一刻。

视频信息

General
 Complete name                  : D:\迅雷下载\画江湖侠岚\侠岚第1季 上集.mp4
 Format                         : MPEG-4
 Format profile                 : Base Media
 Codec ID                       : isom (isom/iso2/avc1/mp41)
 File size                      : 5.33 GiB
 Duration                       : 4 h 7 min
 Overall bit rate mode          : Variable
 Overall bit rate               : 3 086 kb/s
 Writing application            : Lavf58.29.100
 Video
 ID                             : 1
 Format                         : AVC
 Format/Info                    : Advanced Video Codec
 Format profile                 : Main@L4
 Format settings                : CABAC / 1 Ref Frames
 Format settings, CABAC         : Yes
 Format settings, Reference fra : 1 frame
 Codec ID                       : avc1
 Codec ID/Info                  : Advanced Video Coding
 Duration                       : 4 h 7 min
 Bit rate mode                  : Variable
 Bit rate                       : 2 951 kb/s
 Maximum bit rate               : 9 000 kb/s
 Width                          : 1 920 pixels
 Height                         : 1 080 pixels
 Display aspect ratio           : 16:9
 Frame rate mode                : Constant
 Frame rate                     : 25.000 FPS
 Color space                    : YUV
 Chroma subsampling             : 4:2:0
 Bit depth                      : 8 bits
 Scan type                      : Progressive
 Bits/(Pixel*Frame)             : 0.057
 Stream size                    : 5.10 GiB (96%)
 Codec configuration box        : avcC
 Audio
 ID                             : 2
 Format                         : AAC LC
 Format/Info                    : Advanced Audio Codec Low Complexity
 Codec ID                       : mp4a-40-2
 Duration                       : 4 h 7 min
 Bit rate mode                  : Constant
 Bit rate                       : 128 kb/s
 Channel(s)                     : 2 channels
 Channel layout                 : L R
 Sampling rate                  : 44.1 kHz
 Frame rate                     : 43.066 FPS (1024 SPF)
 Compression mode               : Lossy
 Stream size                    : 227 MiB (4%)
 Default                        : Yes
 Alternate group                : 1

视频截图

下载地址

侠岚 1-7季:magnet:?xt=urn:btih:775E462FF6727AAE241EB9581E57DD0DE86645E1

留下评论

Secured By miniOrange