2021年春节档电影合集

2021年2月11日除夕至17日正月初六,全国电影票房达78.22亿元,继2019年59.05亿元后,再次刷新春节档全国电影票房纪录,增长32.47%,同时创造了全球单一市场单日票房、全球单一市场周末票房等多项世界纪录。

权威数据显示,今年春节档观影总人次为1.6亿,比2019年春节档1.32亿增长21%。截至2月17日,全年总票房为115.88亿元,观影总人次为2.62亿,国产影片票房为112.26亿元。

春节档的7部影片累计票房分别为:《你好,李焕英》27.22亿元;《唐人街探案3》35.62亿元;《刺杀小说家》5.39亿元;《熊出没·狂野大陆》4.05亿元;《新神榜:哪吒重生》2.39亿元;《人潮汹涌》1.51亿元;《侍神令》2.11亿元。

你好,李焕英

%title插图%num
电影信息

◎译  名 Hi, Mom
◎片  名 你好,李焕英
◎年  代 2021
◎产  地 中国大陆
◎类  别 剧情 / 喜剧 / 奇幻
◎语  言 汉语普通话
◎上映日期 2021-02-12(中国大陆)
◎IMDb评分 7.2/10 from 717 users
◎IMDb链接 https://www.imdb.com/title/tt13364790
◎豆瓣评分 8.1/10 from 972178 users
◎豆瓣链接 https://movie.douban.com/subject/34841067
◎片  长 128分钟
◎导  演 贾玲 Ling Jia
◎编  剧 贾玲 Ling Jia / 孙集斌 Jibin Sun / 王宇 Yu Wang / 刘宏禄 Honglu Liu / 卜钰 Yu Bu / 郭宇鹏 Yupeng Guo
◎主  演 贾玲 Ling Jia
      张小斐 Xiaofei Zhang
      沈腾 Teng Shen
      陈赫 He Chen
      刘佳 Jia Liu
      丁嘉丽 Jiali Ding
      王琳 Lin Wang
      杜源 Yuan Du
      何翯 He He
      何欢 Huan He
      韩云云 Yunyun Han
      包文婧 Wenjing Bao
      葛珊珊 Shanshan Ge
      史策 Ce Shi
      黄小猫 Katherine Ackerman
      许君聪 Juncong Xu
      卜钰 Yu Bu
      刘宏禄 Honglu Liu
      魏翔 Xiang Wei
      孙集斌 Jibin Sun
      泰维 Taiwei Zhang
      郭宇鹏 Yupeng Guo
      朱天福 Tianfu Zhu
      王宇 Yu Wang
      冯巩 Gong Feng
      乔杉 Shan Qiao
      王小利 Xiaoli Wang
      宋晓峰 Xiaofeng Song
      董若溪 Ruoxi Dong
      曹贺军 Hejun Cao
      赵婷婷 Tingting Zhao
      姬晴 Qing Ji
      郭祥鹏 Xiangpeng Guo
      李一峰 Yifeng Li
      潘斌龙 Binlong Pan
      贾文田 Wentian Jia

◎标  签 感人 | 亲情 | 妈妈 | 温情 | 喜剧 | 触动 | 搞笑 | 2021

◎简  介

2001年的某一天,刚刚考上大学的贾晓玲(贾玲 饰)经历了人生中的一次大起大落。一心想要成为母亲骄傲的她却因母亲突遭严重意外,而悲痛万分。在贾晓玲情绪崩溃的状态下,竟意外的回到了1981年,并与年轻的母亲李焕英(张小斐 饰)相遇,二人形影不离,宛如闺蜜。与此同时,也结识了一群天真善良的好朋友。晓玲以为来到了这片“广阔天地”,她可以凭借自己超前的思维,让母亲“大有作为”,但结果却让晓玲感到意外……

视频信息
General
 Unique ID                      : 2548673623512996578535153080942808821 (0x1EADB4FB54739A349575A2F38554EF5)
 Complete name                  : F:\新建文件夹 (2)[y5y4.com]你好,李焕英.Hi,Mom.2021.1080P.WEB-DL.X264.AAC-Vampire[y5y4.com]你好,李焕英.Hi,Mom.2021.1080P.WEB-DL.X264.AAC-Vampire.mkv
 Format                         : Matroska
 Format version                 : Version 4
 File size                      : 2.34 GiB
 Duration                       : 2 h 7 min
 Overall bit rate               : 2 629 kb/s
 Movie name                     : 你好,李焕英/Hi,Mom
 Encoded date                   : UTC 2021-05-01 03:01:07
 Writing application            : mkvmerge v55.0.0 ('Waiting For Space') 64-bit
 Writing library                : libebml v1.4.2 + libmatroska v1.6.4
 Cover                          : Yes
 Comment                        : 小影影视&Vampire制作分享版本
 Attachments                    : Cover.jpg
 ARTIST                         : Vampire
 DATE_RECORDED                  : 2021
 GENRE                          : 中国大陆
 WARNING                        : 警告:严禁将本人制作的任何作品用于商业性质活动,所有制作作品仅限于测试宽带之用,请于下载后24小时内删除。本人不承担任何法律后果!喜欢本作品请购买正版!!!
 Video
 ID                             : 1
 Format                         : AVC
 Format/Info                    : Advanced Video Codec
 Format profile                 : High@L4
 Format settings                : CABAC / 5 Ref Frames
 Format settings, CABAC         : Yes
 Format settings, Reference fra : 5 frames
 Codec ID                       : V_MPEG4/ISO/AVC
 Duration                       : 2 h 7 min
 Bit rate                       : 2 498 kb/s
 Width                          : 1 920 pixels
 Height                         : 796 pixels
 Display aspect ratio           : 2.40:1
 Frame rate mode                : Constant
 Frame rate                     : 24.000 FPS
 Color space                    : YUV
 Chroma subsampling             : 4:2:0
 Bit depth                      : 8 bits
 Scan type                      : Progressive
 Bits/(Pixel*Frame)             : 0.068
 Stream size                    : 2.23 GiB (95%)
 Writing library                : x264 core 148
 Encoding settings              : cabac=1 / ref=5 / deblock=1:0:0 / analyse=0x3:0x113 / me=hex / subme=8 / psy=1 / psy_rd=1.00:0.00 / mixed_ref=1 / me_range=16 / chroma_me=1 / trellis=2 / 8x8dct=1 / cqm=0 / deadzone=21,11 / fast_pskip=1 / chroma_qp_offset=-2 / threads=12 / lookahead_threads=2 / sliced_threads=0 / nr=0 / decimate=1 / interlaced=0 / bluray_compat=0 / constrained_intra=0 / bframes=3 / b_pyramid=2 / b_adapt=1 / b_bias=0 / direct=3 / weightb=1 / open_gop=0 / weightp=2 / keyint=250 / keyint_min=24 / scenecut=40 / intra_refresh=0 / rc_lookahead=50 / rc=crf / mbtree=1 / crf=25.0 / qcomp=0.60 / qpmin=0 / qpmax=69 / qpstep=4 / vbv_maxrate=5000 / vbv_bufsize=10000 / crf_max=0.0 / nal_hrd=none / filler=0 / ip_ratio=1.40 / aq=1:1.00
 Language                       : Chinese
 Default                        : Yes
 Forced                         : No
 Color range                    : Limited
 Color primaries                : BT.709
 Transfer characteristics       : BT.709
 Matrix coefficients            : BT.709
 Audio
 ID                             : 2
 Format                         : AAC LC
 Format/Info                    : Advanced Audio Codec Low Complexity
 Codec ID                       : A_AAC-2
 Duration                       : 2 h 7 min
 Bit rate                       : 128 kb/s
 Channel(s)                     : 2 channels
 Channel layout                 : L R
 Sampling rate                  : 44.1 kHz
 Frame rate                     : 43.066 FPS (1024 SPF)
 Compression mode               : Lossy
 Delay relative to video        : -46 ms
 Stream size                    : 117 MiB (5%)
 Language                       : Chinese
 Default                        : Yes
 Forced                         : No
 Text
 ID                             : 3
 Format                         : UTF-8
 Codec ID                       : S_TEXT/UTF8
 Codec ID/Info                  : UTF-8 Plain Text
 Duration                       : 12 s 692 ms
 Bit rate                       : 161 b/s
 Count of elements              : 2
 Stream size                    : 257 Bytes (0%)
 Language                       : Chinese
 Default                        : No
 Forced                         : No
视频截图
下载地址

你好,李焕英.Hi,Mom.2021.1080P.WEB-DL.X264.AAC-Vampire,2.34GB:magnet:?xt=urn:btih:451C95B4E06B7F04581E387EF26732F666BEEC8B

唐人街探案3

%title插图%num
电影信息

◎译  名 Detective Chinatown 3 / 唐探3
◎片  名 唐人街探案3
◎年  代 2021
◎产  地 中国大陆
◎类  别 喜剧 / 悬疑
◎语  言 汉语普通话
◎上映日期 2021-02-12(中国大陆)
◎IMDb链接  https://www.imdb.com/title/tt10370822
◎豆瓣评分 0/10 from 0 users
◎豆瓣链接 https://movie.douban.com/subject/27619748/
◎片  长 136分钟
◎导  演 陈思诚 Sicheng Chen
◎编  剧 陈思诚 Sicheng Chen / 张淳  / 刘吾驷 Wusi Liu / 莲舟  / 严以宁 Yining Yan / 徐子豪 Nomy Xu
◎主  演 王宝强 Baoqiang Wang
       刘昊然 Haoran Liu
       妻夫木聪 Satoshi Tsumabuki
       托尼·贾 Tony Jaa
       长泽雅美 Masami Nagasawa
       染谷将太 Shôta Sometani
       铃木保奈美 Honami Suzuki
       浅野忠信 Tadanobu Asano
       三浦友和 Tomokazu Miura
       尚语贤 Yuxian Shang
       肖央 Yang Xiao
       张子枫 Zifeng Zhang
       邱泽 Roy Chiu
       张钧甯 Chun-Ning Chang
       马伯骞 Victor Ma
       程潇 Xiao Cheng
       陈哲远 Zheyuan Chen
       李明轩 Mingxuan Li
       崔雨鑫 Yuxin Cui

◎标  签 推理 | 悬疑 | 喜剧 | 刘昊然 | 搞笑 | 国产电影 | 犯罪 | 中国电影

◎简  介

继曼谷、纽约之后,东京再出大案。唐人街神探唐仁(王宝强饰)、秦风(刘昊然饰)受侦探野田昊(妻夫木聪饰)的邀请前往破案。“CRIMASTER世界侦探排行榜”中的侦探们闻讯后也齐聚东京,加入挑战,而排名第一Q的现身,让这个大案更加扑朔迷离,一场亚洲最强神探之间的较量即将爆笑展开……

视频信息
General
 Unique ID                      : 163726885771889145644604185408851958020 (0x7B2CA6B51ABEDAD6FABA556FE2485904)
 Complete name                  : F:\新建文件夹 (2)\【更多高清电影访问 www.BBQDDQ.com】唐人街探案3[120FPS高帧率][国语中字].Detective.Chinatown.3.2021.2160p.WEB-DL.120FPS.H265.DDP5.1.Atmos-OurTV\唐人街探案3. Detective.Chinatown.3.2021.2160p.WEB-DL.120FPS.H265.DDP5.1.Atmos-OurTV.mkv
 Format                         : Matroska
 Format version                 : Version 4
 File size                      : 11.8 GiB
 Duration                       : 2 h 15 min
 Overall bit rate               : 12.4 Mb/s
 Encoded date                   : UTC 2021-04-30 14:21:51
 Writing application            : mkvmerge v56.1.0 ('My Friend') 64-bit
 Writing library                : libebml v1.4.2 + libmatroska v1.6.4
 Video
 ID                             : 1
 Format                         : HEVC
 Format/Info                    : High Efficiency Video Coding
 Format profile                 : Main@L5.2@Main
 Codec ID                       : V_MPEGH/ISO/HEVC
 Duration                       : 2 h 15 min
 Bit rate                       : 11.9 Mb/s
 Width                          : 3 840 pixels
 Height                         : 1 620 pixels
 Display aspect ratio           : 2.40:1
 Frame rate mode                : Variable
 Frame rate                     : 120.000 FPS
 Color space                    : YUV
 Chroma subsampling             : 4:2:0
 Bit depth                      : 8 bits
 Bits/(Pixel*Frame)             : 0.016
 Stream size                    : 11.3 GiB (96%)
 Default                        : Yes
 Forced                         : No
 Color range                    : Limited
 Color primaries                : BT.709
 Transfer characteristics       : BT.709
 Matrix coefficients            : BT.709
 Audio
 ID                             : 2
 Format                         : E-AC-3 JOC
 Format/Info                    : Enhanced AC-3 with Joint Object Coding
 Commercial name                : Dolby Digital Plus with Dolby Atmos
 Codec ID                       : A_EAC3
 Duration                       : 2 h 15 min
 Bit rate mode                  : Constant
 Bit rate                       : 448 kb/s
 Channel(s)                     : 6 channels
 Channel layout                 : L R C LFE Ls Rs
 Sampling rate                  : 48.0 kHz
 Frame rate                     : 31.250 FPS (1536 SPF)
 Compression mode               : Lossy
 Stream size                    : 436 MiB (4%)
 Language                       : Chinese
 Service kind                   : Complete Main
 Default                        : Yes
 Forced                         : No
 Complexity index               : 16
 Number of dynamic objects      : 15
 Bed channel count              : 1 channel
 Bed channel configuration      : LFE
视频截图
下载地址

唐人街探案3.Detective.Chinatown.3.2021.WEB-DL.1080p.X264,2.89GB:magnet:?xt=urn:btih:036C1AD809CC5D2A3F98171353FAC6CDFA4F19D6

唐人街探案3[国语中字].Detective.Chinatown.3.2021.1080p.WEB-DL.H264.DDP5.1.Atmos-OurTV,6.26GB:magnet:?xt=urn:btih:E43E0956968E2A356AD4F2E673DFE4DAC0B1084B

唐人街探案3[120FPS高帧率][国语中字].Detective.Chinatown.3.2021.2160p.WEB-DL.120FPS.H265.DDP5.1.Atmos-OurTV,11.77GB:magnet:?xt=urn:btih:6009F9E3E3F0A1A2FBDB782CA3735550E3111460

刺杀小说家

%title插图%num
电影信息

◎译  名 A Writer’s Odyssey/Assassin in Red
◎片  名 刺杀小说家
◎年  代 2021
◎产  地 中国大陆
◎类  别 动作 / 奇幻 / 冒险
◎语  言 汉语普通话
◎上映日期 2021-02-12(中国大陆)
◎IMDb评分  6.5/10 from 432 users
◎IMDb链接  https://www.imdb.com/title/tt9685342/
◎豆瓣评分 6.9/10 from 409909 users
◎豆瓣链接 https://movie.douban.com/subject/26826330/
◎片  长 130分钟
◎导  演 路阳 Yang Lu
◎编  剧 陈舒 Shu Chen / 禹扬 Yang Yu / 秦海燕 Haiyan Qin / 路阳 Yang Lu / 双雪涛 Shuang XueTao
◎主  演 雷佳音 Jiayin Lei
       杨幂 Mi Yang
       董子健 Zijian Dong
       于和伟 Hewei Yu
       郭京飞 Jingfei Guo
       佟丽娅 Liya Tong
       董洁 Jie Dong
       王圣迪 Shengdi Wang
       杨轶 Yi Yang
       刘天佐 Tianzuo Liu
       李柄辉 Binghui Li
       萧子墨 Eric Hsiao
       双雪涛 Shuang XueTao
       徐建 Eric Xu
       高睿菲儿 Ruifeier Gao
       张优 You Zhang
       黄皓达 Haoda Huang
       康嘉泽 Jiaze Kang
       李泰延 Taiyan Li
       陈铁军 Tiejun Chen
       任杰 Jie Ren
       张戈 Ge Zhang

◎标  签 奇幻 | 平行世界 | 悬疑 | 动作 | 中国大陆 | 剧情 | 2021 | 电影

◎简  介

异世界皇都,天神赤发鬼残暴统治,滥杀无辜。少年空文因被赤发鬼追杀,决定奋起反击。在黑甲(郭京飞 饰)的指引下,踏上了凡人弑神之路。这是小说家路空文(董子健 饰)笔下的奇幻世界。没想到小说的进程,竟然影响着现实世界。这时一名男子(雷佳音 饰)接下了刺杀他的任务……

视频信息
General
 Complete name                  : F:\新建文件夹 (2)\【更多高清电影访问 www.BBQDDQ.com】刺杀小说家.A.Writer's.Odyssey.2021.REPACK.2160p.120FPS.WEB-DL.H265.DDP5.1-OurTV\刺杀小说家.A.Writer's.Odyssey.2021.2160p.120FPS.WEB-DL.H265.DDP5.1-OurTV.mp4
 Format                         : MPEG-4
 Format profile                 : Base Media
 Codec ID                       : isom (isom/iso2/mp41)
 File size                      : 10.1 GiB
 Duration                       : 2 h 9 min
 Overall bit rate               : 11.1 Mb/s
 Writing application            : Lavf58.19.100
 Video
 ID                             : 1
 Format                         : HEVC
 Format/Info                    : High Efficiency Video Coding
 Format profile                 : Main@L5.2@Main
 Codec ID                       : hev1
 Codec ID/Info                  : High Efficiency Video Coding
 Duration                       : 2 h 9 min
 Bit rate                       : 10.7 Mb/s
 Width                          : 3 840 pixels
 Height                         : 2 088 pixels
 Display aspect ratio           : 1.85:1
 Frame rate mode                : Constant
 Frame rate                     : 120.000 FPS
 Color space                    : YUV
 Chroma subsampling             : 4:2:0
 Bit depth                      : 8 bits
 Bits/(Pixel*Frame)             : 0.011
 Stream size                    : 9.67 GiB (96%)
 Color range                    : Limited
 Color primaries                : BT.709
 Transfer characteristics       : BT.709
 Matrix coefficients            : BT.709
 Codec configuration box        : hvcC
 Audio #1
 ID                             : 2
 Format                         : E-AC-3
 Format/Info                    : Enhanced AC-3
 Commercial name                : Dolby Digital Plus
 Codec ID                       : ec-3
 Duration                       : 2 h 9 min
 Bit rate mode                  : Constant
 Bit rate                       : 256 kb/s
 Channel(s)                     : 6 channels
 Channel layout                 : L R C LFE Ls Rs
 Sampling rate                  : 48.0 kHz
 Frame rate                     : 31.250 FPS (1536 SPF)
 Compression mode               : Lossy
 Stream size                    : 238 MiB (2%)
 Title                          : 国语DDP5.1
 Language                       : Chinese
 Service kind                   : Complete Main
 Default                        : Yes
 Alternate group                : 1
 Audio #2
 ID                             : 3
 Format                         : AAC LC
 Format/Info                    : Advanced Audio Codec Low Complexity
 Codec ID                       : mp4a-40-2
 Duration                       : 2 h 9 min
 Bit rate mode                  : Constant
 Bit rate                       : 192 kb/s
 Channel(s)                     : 2 channels
 Channel layout                 : L R
 Sampling rate                  : 44.1 kHz
 Frame rate                     : 43.066 FPS (1024 SPF)
 Compression mode               : Lossy
 Stream size                    : 176 MiB (2%)
 Title                          : 国语AAC2.0
 Language                       : Chinese
 Default                        : No
 Alternate group                : 1
视频截图
下载地址

刺杀小说家.Assassin.in.Red.2021.1080p.WEB-DL.X264,2.39GB:magnet:?xt=urn:btih:2C4898770ADE7B8BEE1AEB357B2EBF6F1DE653D7

刺杀小说家.A.Writer’s.Odyssey.2021.1080p.WEB-DL.H265.DDP5.1-OurTV,4.65GB:magnet:?xt=urn:btih:5B618307CF70019C863DB864C9AE743EB5EA1AE9

刺杀小说家.A.Writer’s.Odyssey.2021.2160p.120FPS.WEB-DL.H265.DDP5.1-OurTV,10.10GB:magnet:?xt=urn:btih:06DC5E220C6055B0D4760B7CD0548CA856E7CA6B

熊出没·狂野大陆

%title插图%num
电影信息

◎译  名 熊出没大电影7/熊出没科幻大电影/Boonie Bears: The Wild Life
◎片  名 熊出没·狂野大陆
◎年  代 2020
◎产  地 中国大陆
◎类  别 喜剧/科幻/动画
◎语  言 汉语普通话
◎上映日期 2020-08-01(上海电影节)/2021-02-12(中国大陆)
◎IMDb链接  https://www.imdb.com/title/tt11654032/
◎豆瓣评分 6.6/10 from 17425 users
◎豆瓣链接 https://douban.com/subject/34825886/
◎片  长 99分钟
◎导  演 丁亮 Liang Ding / 邵和麒 Heqi Shao
◎编  剧 徐芸 Yun Xu / 崔铁志 Tiezhi Cui
◎主  演 张伟 Wei Zhang
       张秉君 Bingjun Zhang
       谭笑 Xiao Tan
       饶依格 Yige Rao
       朱光祖 Guangzu Zhu

◎标  签 熊出没 | 国产动画 | 永远支持熊出没 | 熊出没动画片粉丝 | 动画 | 每年必看 | 国产电影 | 电影

◎简  介

狗熊岭附近新开业了一个神奇的“狂野大陆”,在那里,通过基因技术人可以自由变身各种动物,享受无比的自由和快乐。导游事业受挫的光头强,阴差阳错与神秘人乐天和熊二组队,参加乐园里奖金丰厚的比赛,却遭遇了队友乐天的背叛,历尽艰险终于获得冠军之际,却意外发现狂野大陆里隐藏着惊天的阴谋…..

视频信息
General
 Complete name                  : F:\新建文件夹 (2)\熊出没·狂野大陆.Boonie.Bears.The.Wild.Life.2020.WEB-DL.1080p.mp4
 Format                         : MPEG-4
 Format profile                 : Base Media
 Codec ID                       : isom (isom/iso2/avc1/mp41)
 File size                      : 2.88 GiB
 Duration                       : 1 h 39 min
 Overall bit rate mode          : Variable
 Overall bit rate               : 4 135 kb/s
 Video
 ID                             : 1
 Format                         : AVC
 Format/Info                    : Advanced Video Codec
 Format profile                 : High@L4.1
 Format settings                : CABAC / 1 Ref Frames
 Format settings, CABAC         : Yes
 Format settings, Reference fra : 1 frame
 Codec ID                       : avc1
 Codec ID/Info                  : Advanced Video Coding
 Duration                       : 1 h 39 min
 Bit rate mode                  : Variable
 Bit rate                       : 4 004 kb/s
 Maximum bit rate               : 8 000 kb/s
 Width                          : 1 920 pixels
 Height                         : 1 080 pixels
 Display aspect ratio           : 16:9
 Frame rate mode                : Constant
 Frame rate                     : 25.000 FPS
 Standard                       : Component
 Color space                    : YUV
 Chroma subsampling             : 4:2:0
 Bit depth                      : 8 bits
 Scan type                      : Progressive
 Bits/(Pixel*Frame)             : 0.077
 Stream size                    : 2.78 GiB (97%)
 Color range                    : Limited
 Codec configuration box        : avcC
 Audio
 ID                             : 2
 Format                         : AAC LC
 Format/Info                    : Advanced Audio Codec Low Complexity
 Codec ID                       : mp4a-40-2
 Duration                       : 1 h 39 min
 Bit rate mode                  : Constant
 Bit rate                       : 125 kb/s
 Channel(s)                     : 2 channels
 Channel layout                 : L R
 Sampling rate                  : 48.0 kHz
 Frame rate                     : 46.875 FPS (1024 SPF)
 Compression mode               : Lossy
 Stream size                    : 89.3 MiB (3%)
 Default                        : Yes
 Alternate group                : 1
视频截图
下载地址

熊出没·狂野大陆.Boonie.Bears.The.Wild.Life.2020.WEB-DL.1080p,2.88GB:magnet:?xt=urn:btih:5B0FF6AFFC750A3E5CE588F5692FAC708B5B3830

新神榜:哪吒重生

%title插图%num
电影信息

◎译  名 New Gods:Nezha Reborn / 新封神:哪吒重生
◎片  名 新神榜:哪吒重生
◎年  代 2021
◎产  地 中国大陆
◎类  别 动作 / 动画 / 奇幻
◎语  言 汉语普通话
◎上映日期 2021-02-12(中国大陆)
◎IMDb评分 6.8/10 from 71 users
◎IMDb链接 https://www.imdb.com/title/tt13269670
◎豆瓣评分 7.3/10 from 85426 users
◎豆瓣链接 https://movie.douban.com/subject/34779692
◎片  长 116分钟
◎导  演 赵霁 Ji Zhao
◎编  剧 沐川
◎主  演 杨天翔 Tianxiang Yang
       张赫 He Zhang
       宣晓鸣 Xiaoming Xuan
       李诗萌 Shimeng Li
       朱可儿 Keer Zhu
       凌振赫 Zhenhe Ling
       刘若班 Ruoban Liu
       张遥函 Yaohan Zhang
       张喆 Zhe Zhang
       高增志 Zengzhi Gao
       郭浩然 Haoran Guo

◎标  签 哪吒 | 国漫 | 追光动画 | 动画 | 奇幻 | 赛博朋克 | 2021 | 中国大陆

◎简  介

三千年前,天下动荡,人神共遇大劫,不想哪吒的一缕魂魄逃脱天罗地网,世世转世投胎,这一世与东海市酷爱机车的热血青年李云祥人神共生。然而龙族对哪吒恩怨并未善罢甘休,有着哪吒元神的李云祥,亦无法逃脱被龙族赶尽杀绝的宿命。东海危在旦夕,李云祥是否能够与哪吒元神并肩作战,成为抵抗龙族的英雄?东海市的子民能否得到拯救?

视频信息
General
 Unique ID                      : 251470906254893216929313346217517329085 (0xBD2F88EBEB7391DBAC2F090B18B92ABD)
 Complete name                  : F:[y5y4.com][高帧珍藏版]新神榜:哪吒重生.2021.WEB-DL.4K+1080P60FPS.120FPS.H265.AAC.2Audio-AIU\新神榜:哪吒重生.1080p.120FPS.mkv
 Format                         : Matroska
 Format version                 : Version 4
 File size                      : 4.71 GiB
 Duration                       : 1 h 57 min
 Overall bit rate               : 5 749 kb/s
 Encoded date                   : UTC 2021-04-04 15:30:18
 Writing application            : mkvmerge v18.0.0 ('Apricity') 64-bit
 Writing library                : libebml v1.3.5 + libmatroska v1.4.8
 Video
 ID                             : 1
 Format                         : HEVC
 Format/Info                    : High Efficiency Video Coding
 Format profile                 : Main@L5@Main
 Codec ID                       : V_MPEGH/ISO/HEVC
 Duration                       : 1 h 57 min
 Bit rate                       : 5 490 kb/s
 Width                          : 1 920 pixels
 Height                         : 812 pixels
 Display aspect ratio           : 2.35:1
 Frame rate mode                : Variable
 Frame rate                     : 120.000 FPS
 Color space                    : YUV
 Chroma subsampling             : 4:2:0
 Bit depth                      : 8 bits
 Bits/(Pixel*Frame)             : 0.029
 Stream size                    : 4.49 GiB (95%)
 Default                        : Yes
 Forced                         : No
 Color range                    : Limited
 Color primaries                : BT.709
 Transfer characteristics       : BT.709
 Matrix coefficients            : BT.709
 Audio #1
 ID                             : 2
 Format                         : AAC LC
 Format/Info                    : Advanced Audio Codec Low Complexity
 Codec ID                       : A_AAC-2
 Duration                       : 1 h 57 min
 Bit rate                       : 126 kb/s
 Channel(s)                     : 2 channels
 Channel layout                 : L R
 Sampling rate                  : 44.1 kHz
 Frame rate                     : 43.066 FPS (1024 SPF)
 Compression mode               : Lossy
 Stream size                    : 105 MiB (2%)
 Title                          : 普通话
 Language                       : Chinese
 Default                        : Yes
 Forced                         : No
 Audio #2
 ID                             : 3
 Format                         : AAC LC
 Format/Info                    : Advanced Audio Codec Low Complexity
 Codec ID                       : A_AAC-2
 Duration                       : 1 h 57 min
 Bit rate                       : 126 kb/s
 Channel(s)                     : 2 channels
 Channel layout                 : L R
 Sampling rate                  : 44.1 kHz
 Frame rate                     : 43.066 FPS (1024 SPF)
 Compression mode               : Lossy
 Stream size                    : 105 MiB (2%)
 Title                          : 粤语
 Language                       : Chinese
 Default                        : No
 Forced                         : No
视频截图
下载地址

新神榜:哪吒重生.2021.WEB-DL.4K+1080P60FPS.120FPS.H265.AAC.2Audio-AIU,3.97GB+4.71GB+3.10GB:magnet:?xt=urn:btih:86580BACE9FA3D665F0EB822450825B39EE10EF9

人潮汹涌

%title插图%num
电影信息

◎译  名 Endgame
◎片  名 人潮汹涌
◎年  代 2021
◎产  地 中国大陆/中国香港
◎类  别 喜剧/犯罪
◎语  言 汉语普通话
◎上映日期 2021-02-12(中国大陆)
◎IMDb评分  6.6/10 from 164 users
◎IMDb链接  https://www.imdb.com/title/tt11564214/
◎豆瓣评分 7.1/10 from 204346 users
◎豆瓣链接 https://douban.com/subject/34880302/
◎片  长 119分钟
◎导  演 饶晓志 Xiaozhi Rao
◎编  剧 饶晓志 Xiaozhi Rao / 范翔 Xiang Fan / 李想 Xiang Li / 内田贤治 Kenji Uchida
◎主  演 刘德华 Andy Lau
       肖央 Yang Xiao
       万茜 Qian Wan
       程怡 Yi Cheng
       黄小蕾 Xiaolei Huang
       国义骞 Yiqian Guo
       狄志杰 Chih-Chieh Ti
       郭京飞 Jingfei Guo
       刘天佐 Tianzuo Liu
       路阳 Yang Lu
       郭帆 Frant Gwo
       刘浩良 Ho Leung Lau
       饶晓志 Xiaozhi Rao
       雷佳音 Jiayin Lei
       史航 Hang Shi
       魏之皓 Zhihao Wei
       王学兵 Xuebing Wang
       林海 Hai Lin
       隋凯 Michael Stephen Kai Sui
       卫莱 Lai Wei
       吴恩璇 Enxuan Wu

◎标  签 黑色幽默 | 喜剧 | 2021 | 剧情 | 犯罪 | 中国大陆 | 电影 | 悬疑

◎简  介

陈小萌(肖央 饰)一直渴望成为一名演员,但残酷的现实令他至今扔在龙套的位置上苦苦挣扎。没钱没工作没恋人没朋友还欠了一大笔钱的陈小萌想到了死,可是就连死神都抛弃了他,他数次自杀都以失败告终。

一天,陈小萌去澡堂泡澡,意外邂逅了一位神秘且富有的男子(刘德华 饰),该男子在澡堂里意外摔倒昏迷被送进了医院,拾得了他的储物室手环的陈小萌决定顶替他的身份,享受一下富人的生活。头部的撞击令男子失忆了,凭借着零星的线索,他认定自己是陈小萌,并且顺藤摸瓜来到了陈小萌的出租屋,希望熟悉的环境能够令他更快的恢复记忆。在此过程中,男子邂逅了名为李香(万茜 饰)的自媒体人,两人之间碰撞出了火花。

视频信息
General
 Unique ID                      : 9276240017230236887342987699375952352 (0x6FA89F18D796A53D4AA2FDF149DD1E0)
 Complete name                  : F:\新建文件夹 (2)\【更多高清电影访问 www.BBQDDQ.com】人潮汹涌.End.Game.2021.2160p.WEB-DL.H265.HDR.10bits.DDP5.1-OurTV\人潮汹涌.End.Game.2021.2160p.WEB-DL.H265.HDR.10bits.DDP5.1-OurTV.mkv
 Format                         : Matroska
 Format version                 : Version 4
 File size                      : 10.4 GiB
 Duration                       : 1 h 59 min
 Overall bit rate               : 12.4 Mb/s
 Encoded date                   : UTC 2021-04-14 08:47:54
 Writing application            : mkvmerge v50.0.0 ('Awakenings') 64-bit
 Writing library                : libebml v1.4.0 + libmatroska v1.6.2
 Video
 ID                             : 1
 Format                         : HEVC
 Format/Info                    : High Efficiency Video Coding
 Format profile                 : Main 10@L5@High
 HDR format                     : SMPTE ST 2086, HDR10 compatible
 Codec ID                       : V_MPEGH/ISO/HEVC
 Duration                       : 1 h 59 min
 Bit rate                       : 12.0 Mb/s
 Width                          : 3 840 pixels
 Height                         : 1 512 pixels
 Display aspect ratio           : 2.540
 Frame rate mode                : Constant
 Frame rate                     : 24.000 FPS
 Color space                    : YUV
 Chroma subsampling             : 4:2:0
 Bit depth                      : 10 bits
 Bits/(Pixel*Frame)             : 0.086
 Stream size                    : 10.0 GiB (96%)
 Default                        : Yes
 Forced                         : No
 Color range                    : Limited
 Color primaries                : BT.2020
 Transfer characteristics       : PQ
 Matrix coefficients            : BT.2020 non-constant
 Mastering display color primar : R: x=0.708000 y=0.292000, G: x=0.170000 y=0.797000, B: x=0.130000 y=0.046000, White point: x=0.312700 y=0.329000
 Mastering display luminance    : min: 0.0001 cd/m2, max: 1000 cd/m2
 Maximum Content Light Level    : 792 cd/m2
 Maximum Frame-Average Light Le : 348 cd/m2
 Audio #1
 ID                             : 2
 Format                         : E-AC-3
 Format/Info                    : Enhanced AC-3
 Commercial name                : Dolby Digital Plus
 Codec ID                       : A_EAC3
 Duration                       : 1 h 59 min
 Bit rate mode                  : Constant
 Bit rate                       : 256 kb/s
 Channel(s)                     : 6 channels
 Channel layout                 : L R C LFE Ls Rs
 Sampling rate                  : 48.0 kHz
 Frame rate                     : 31.250 FPS (1536 SPF)
 Compression mode               : Lossy
 Stream size                    : 220 MiB (2%)
 Title                          : 国语
 Language                       : Chinese
 Service kind                   : Complete Main
 Default                        : Yes
 Forced                         : No
 Audio #2
 ID                             : 3
 Format                         : AAC LC
 Format/Info                    : Advanced Audio Codec Low Complexity
 Codec ID                       : A_AAC-2
 Duration                       : 1 h 59 min
 Bit rate                       : 192 kb/s
 Channel(s)                     : 2 channels
 Channel layout                 : L R
 Sampling rate                  : 44.1 kHz
 Frame rate                     : 43.066 FPS (1024 SPF)
 Compression mode               : Lossy
 Stream size                    : 163 MiB (2%)
 Title                          : 国语
 Language                       : Chinese
 Default                        : No
 Forced                         : No
视频截图
下载地址

人潮汹涌.End.Game.2021.1080p.WEB-DL.H264.DDP5.1-OurTV,1.95GB:magnet:?xt=urn:btih:A1052422C095365FC102A7816566ED93DE2A1399

人潮汹涌.End.Game.2021.2160p.WEB-DL.H265.HDR.10bits.DDP5.1-OurTV,10.40GB:magnet:?xt=urn:btih:A6902E152EE70173575746460892E077D647D598

侍神令

%title插图%num
电影信息

◎译  名 The YinYang Master / 阴阳师 / 阴阳师电影版
◎片  名 侍神令
◎年  代 2021
◎产  地 中国大陆
◎类  别 奇幻
◎语  言 汉语普通话
◎上映日期 2021-02-12(中国大陆)
◎IMDb评分 6.2/10 from 74 users
◎IMDb链接 https://www.imdb.com/title/tt12151820
◎豆瓣评分 5.9/10 from 82843 users
◎豆瓣链接 https://movie.douban.com/subject/26935283
◎片  长 120分钟
◎导  演 李蔚然 Weiran Li
◎编  剧 张家鲁 Chia-lu Chang / 翦以玟 Even Jian
◎主  演 陈坤 Kun Chen
       周迅 Xun Zhou
       陈伟霆 William Chan
       屈楚萧 Chuxiao Qu
       王丽坤 Likun Wang
       沈月 Yue Shen
       王紫璇 Zixuan Wang
       王悦伊 Yueyi Wang
       孙红雷 Honglei Sun
       艾米 Aimee

◎标  签 阴阳师 | 奇幻 | 游戏改编 | 电影 | 中国大陆 | 二次元 | 魔幻 | 

◎简  介

穿行于人妖两界的阴阳师晴明(陈坤 饰),因与一众妖怪缔结契约,酿成大祸,深陷危机。而与此同时,妖皇势力正卷土重来,一场恶战一触即发。在风云突变、局势动荡的危急时刻,晴明恍然发现,自己人妖混血的身份,竟是这一切灾祸的关键……

视频信息
General
 Complete name                  : F:\新建文件夹 (2)[y5y4.com]侍神令[高码高帧].2021.WEB-DL.4K&1080P.HBR&HFR.H265.AAC-AIU\侍神令.4K.mp4
 Format                         : MPEG-4
 Format profile                 : Base Media
 Codec ID                       : isom (isom/iso2/mp41)
 File size                      : 7.08 GiB
 Duration                       : 1 h 59 min
 Overall bit rate mode          : Variable
 Overall bit rate               : 8 448 kb/s
 Writing application            : Lavf58.32.104
 Video
 ID                             : 1
 Format                         : HEVC
 Format/Info                    : High Efficiency Video Coding
 Format profile                 : Main@L5.1@Main
 Codec ID                       : hev1
 Codec ID/Info                  : High Efficiency Video Coding
 Duration                       : 1 h 59 min
 Bit rate                       : 8 242 kb/s
 Width                          : 3 840 pixels
 Height                         : 1 620 pixels
 Display aspect ratio           : 2.40:1
 Frame rate mode                : Constant
 Frame rate                     : 60.000 FPS
 Color space                    : YUV
 Chroma subsampling             : 4:2:0
 Bit depth                      : 8 bits
 Bits/(Pixel*Frame)             : 0.022
 Stream size                    : 6.91 GiB (98%)
 Color range                    : Limited
 Color primaries                : BT.709
 Transfer characteristics       : BT.709
 Matrix coefficients            : BT.709
 Codec configuration box        : hvcC
 Audio
 ID                             : 2
 Format                         : AAC LC
 Format/Info                    : Advanced Audio Codec Low Complexity
 Codec ID                       : mp4a-40-2
 Duration                       : 1 h 59 min
 Bit rate mode                  : Variable
 Bit rate                       : 192 kb/s
 Maximum bit rate               : 194 kb/s
 Channel(s)                     : 2 channels
 Channel layout                 : L R
 Sampling rate                  : 44.1 kHz
 Frame rate                     : 43.066 FPS (1024 SPF)
 Compression mode               : Lossy
 Stream size                    : 163 MiB (2%)
 Default                        : Yes
 Alternate group                : 1
视频截图
下载地址

侍神令[高码高帧].2021.WEB-DL.4K&1080P.HBR&HFR.H265.AAC-AIU,7.08GB+2.47GB:magnet:?xt=urn:btih:56B72B5570DEEF2FDD1EC9BF2E23C68F5F3681D6

留下评论

Secured By miniOrange