BBC纪录片A Perfect Planet(完美星球)五集4K全集

%title插图%num

《完美星球》是一部与地球科学巧妙结合的蓝筹自然历史纪录片,它揭示了我们所生存的这颗星球的运转规则。 这部纪录片共分为五集,展示了自然力量如何推动、塑造和维持地球生物的多样性,前四集分别探索了火山、 阳光、天气和海洋的力量,最后一集则着眼于新兴的自然力量:人类,揭示了人类对地球造成的巨大影响以及如何恢复地球完美的生态平衡。

从印度雨季潮湿的土地到夏威夷火山炽热的山坡;从巴哈马的潮汐岛屿到冰天雪地的埃尔斯米尔岛;从冬夜郊外嚎叫的北极狼群到春季结冰的身体慢慢融化的木蛙;从加拉帕戈斯群岛以吸食海鸟鲜血解渴的吸血地雀,到每年成群结队聚集在火山湖中繁殖的非洲小红鹳,《完美星球》将带领我们踏上一场无与伦比的视觉之旅。

这部纪录片将改变我们看待自然家园的方式。我们将一次又一次地见证地球所具有的强大自然力量是如何孕育生命的。

视频信息
 General
Unique ID : 170317677349237230758257867308623169999 (0x8021FDD20FCEFAB7B6B44C2EAC8389CF)
Complete name : E:\A.Perfect.Planet.S01E01.Volcano.2160p.WEBRip.x265.10bit.HDR.HLG.DDP5.1-SWTYBLZ\A.Perfect.Planet.S01E01.Volcano.2160p.WEBRip.x265.10bit.HDR.HLG.DDP5.1-SWTYBLZ.mkv
Format : Matroska
Format version : Version 4
File size : 7.96 GiB
Duration : 59 min 9 s
Overall bit rate : 19.3 Mb/s
Encoded date : UTC 2021-01-04 14:50:39
Writing application : mkvmerge v51.0.0 ('I Wish') 64-bit
Writing library : libebml v1.4.0 + libmatroska v1.6.2
 Video
ID : 1
Format : HEVC
Format/Info : High Efficiency Video Coding
Format profile : Main 10@L5.1@Main
Codec ID : V_MPEGH/ISO/HEVC
Duration : 59 min 9 s
Bit rate : 18.6 Mb/s
Width : 3 840 pixels
Height : 2 160 pixels
Display aspect ratio : 16:9
Frame rate mode : Constant
Frame rate : 25.000 FPS
Standard : Component
Color space : YUV
Chroma subsampling : 4:2:0
Bit depth : 10 bits
Bits/(Pixel*Frame) : 0.090
Stream size : 7.70 GiB (97%)
Default : Yes
Forced : No
Color range : Limited
Color primaries : BT.2020
Transfer characteristics : HLG
transfer_characteristics_Origi : HLG / BT.2020 (10-bit)
Matrix coefficients : BT.2020 non-constant
 Audio
ID : 2
Format : E-AC-3
Format/Info : Enhanced AC-3
Commercial name : Dolby Digital Plus
Codec ID : A_EAC3
Duration : 58 min 27 s
Bit rate mode : Constant
Bit rate : 640 kb/s
Channel(s) : 6 channels
Channel layout : L R C LFE Ls Rs
Sampling rate : 48.0 kHz
Frame rate : 31.250 FPS (1536 SPF)
Compression mode : Lossy
Delay relative to video : 28 ms
Stream size : 268 MiB (3%)
Language : English
Service kind : Complete Main
Default : Yes
Forced : No
 Text #1
ID : 3
Format : UTF-8
Codec ID : S_TEXT/UTF8
Codec ID/Info : UTF-8 Plain Text
Duration : 58 min 3 s
Bit rate : 48 b/s
Count of elements : 513
Stream size : 20.5 KiB (0%)
Language : English
Default : No
Forced : No
 Text #2
ID : 4
Format : UTF-8
Codec ID : S_TEXT/UTF8
Codec ID/Info : UTF-8 Plain Text
Duration : 58 min 3 s
Bit rate : 50 b/s
Count of elements : 567
Stream size : 21.6 KiB (0%)
Title : SDH
Language : English
Default : No
Forced : No 
预览
下载地址

A.Perfect.Planet.S01E01.Volcano.2160p.WEBRip.x265.10bit.HDR.HLG.DDP5.1-SWTYBLZ:magnet:?xt=urn:btih:3C2EB0A59C7D3AAD7E193457A73842BE66D37FE3

A.Perfect.Planet.S01E02.HLG.2160p.WEB.H265-GLHF[rartv]:magnet:?xt=urn:btih:E9939C071138B7275C8A427153909F7A60A8E37F

A.Perfect.Planet.S01E03.HLG.2160p.WEB.H265-GLHF[rartv]:magnet:?xt=urn:btih:D576B708C1926BB190D81138222A852EC564BA72

A.Perfect.Planet.S01E04.HLG.2160p.WEB.H265-GLHF[rartv]:magnet:?xt=urn:btih:B5435FE1CDDACEF577E01CE8706F99E0C1DC0B8C

A.Perfect.Planet.S01E05.HLG.2160p.WEB.H265-GLHF[rartv]:magnet:?xt=urn:btih:C246EBAAE1783452C0180309CF38AD1464AAD983

A.Perfect.Planet.2021.BluRay.2160p.x265.HDR.DD5.1-HQC 26.02GB:magnet:?xt=urn:btih:B778431080A81D108FCD94F3A216E01828B830AB

A.Perfect.Planet.S01.2160p.BluRay.x265.10bit.SDR.DTS-HD.MA.TrueHD.7.1.Atmos-SWTYBLZ 110.4GB:magnet:?xt=urn:btih:2841D262B4A1D26AD17F1BF38E941F6E3E23B0AB

留下评论

Secured By miniOrange